Вы используете незарегистрированную версию компонента "Вкладки"!

Поиск

(Free Improvisation) Red Trio - Red Trio - 2010, FLAC (image+.cue), lossless

Треклист:
Red Trio - Red Trio

Жанр: Free Improvisation
Год выпуска диска: 2010
Производитель диска: Portugal (Clean Feed CD168)
Аудио кодек: FLAC
Тип рипа: image+.cue
Битрейт аудио: lossless
Продолжительность: 58:28
Источник: Собственный рип с оригинального диска
Rodrigo Pinheiro: piano
Hernani Faustino: double bass
Gabriel Ferrandini: drums, percussion
1. Core
2. Flat
3. Coda, Static
4. Quick Sand
5. Timewise
6. Burning Light
Recorded 10th and 11th June, 2008, at Moagem, Fundão by Albrecht Loops.

 
Clean Feed
The Red Trio is quite a unique case in the Portuguese jazz and improvised music scene. The free music played by Rodrigo Pinheiro (piano, prepared piano), Hernâni Faustino (double bass), and Gabriel Ferrandini (drums, percussion) have no attachment to anything else presented in the little European country known for its unusually dynamic jazz, improvised and experimental scenes. And even considering a wider scenario, few piano trios existing in the world can be comparable to what we find in this debut CD. Firstly, because this isn't really a piano trio. The pianist is not the central figure here, even if we imediatly recognise Pinheiro's resourceful and virtuosistic capacities, and the rhythm section, well, isn't in fact a rhythm section, the bass and the drums always intervening side-by-side with the harmonic instrument.
This is indeed collective music, with no hierarchical roles for the intervenients, and conventions like melody and pulse are generally subverted, or replaced by textural instant constructions. In the middle of all the abstractions created, the connections with jazz are not lost - truth is they surface with a welcomed evidence. Thelonious Monk and Cecil Taylor are recognisable, if distant, influences. The same we can say about the references to contemporary classical music, and namely to Messiaen and Ligeti. This is very intense music, sometimes even violent, but with space for detail. Quite a surprise, indeed. ~Clean Feed
 
EAC Report
Exact Audio Copy V0.99 prebeta 5 from 4. May 2009
EAC extraction logfile from 19. February 2010, 17:16
Red Trio / Red Trio
Used drive : hp DVD-RAM GH40L Adapter: 0 ID: 1
Read mode : Secure
Utilize accurate stream : Yes
Defeat audio cache : Yes
Make use of C2 pointers : No
Read offset correction : 667
Overread into Lead-In and Lead-Out : No
Fill up missing offset samples with silence : Yes
Delete leading and trailing silent blocks : No
Null samples used in CRC calculations : Yes
Used interface : Installed external ASPI interface
Used output format : User Defined Encoder
Selected bitrate : 1024 kBit/s
Quality : High
Add ID3 tag : No
Command line compressor : C:\Program Files\Exact Audio Copy\Flac\flac.exe
Additional command line options : -6 -V -T "ARTIST=%a" -T "TITLE=%t" -T "ALBUM=%g" -T "DATE=%y" -T "TRACKNUMBER=%n" -T "GENRE=%m" -T "COMMENT=EAC FLAC -6" %s
TOC of the extracted CD
Track | Start | Length | Start sector | End sector
---------------------------------------------------------
1 | 0:00.00 | 9:43.71 | 0 | 43795
2 | 9:43.71 | 13:46.03 | 43796 | 105748
3 | 23:29.74 | 2:19.46 | 105749 | 116219
4 | 25:49.45 | 17:14.57 | 116220 | 193826
5 | 43:04.27 | 14:14.16 | 193827 | 257892
6 | 57:18.43 | 1:09.00 | 257893 | 263067
Range status and errors
Selected range
Filename C:\Users\Igor\Music\eac\Red Trio - Red Trio.wav
Peak level 98.8 %
Range quality 100.0 %
Test CRC B723E456
Copy CRC B723E456
Copy OK
No errors occurred
AccurateRip summary
Track 1 not present in database
Track 2 not present in database
Track 3 not present in database
Track 4 not present in database
Track 5 not present in database
Track 6 not present in database
None of the tracks are present in the AccurateRip database
End of status report
По всем вопросам пишите личное сообщение пользователю M0p94ok.
20:30
144
Нет комментариев. Ваш будет первым!