Вы используете незарегистрированную версию компонента "Вкладки"!

Поиск

(Free/Avantgarde Jazz, Post Bop,) The Fred Anderson Quartet - Birdhouse - 1996, APE (image+.cue), lossless

(Free/Avantgarde Jazz, Post Bop,) The Fred Anderson Quartet - Birdhouse - 1996, APE (image+.cue), lossless
Треклист:
The Fred Anderson Quartet - Birdhouse
Жанр: Free/Avantgarde Jazz, Post Bop,
Год выпуска диска: 1996
Производитель диска: Okka Disk, US (OD12007)
Аудио кодек: APE
Тип рипа: image+.cue
Битрейт аудио: lossless
Продолжительность: 65'04''
Трэклист:
1 Birdhouse 19:00
2 Bernice 16:12
3 Like Sonny 15:43
4 Waiting For MC 14:09
Доп. информация: Bass - Harrison Bankhead
Drums - Hamid Drake
Other [Liner Notes] - Peter Kostakis
Piano - Jim Baker
Saxophone [Tenor] - Fred Anderson
Recorded at Sparrow Sound Design 2/20/95 (track 4 recorded 4/7/94).
 
скрытый текст
Exact Audio Copy V0.99 prebeta 4 from 23. January 2008
Отчёт EAC об извлечении, выполненном 2. апреля 2010, 1:50
The Fred Anderson Quartet / Birdhouse
Дисковод: TSSTcorpCDDVDW SH-S203D Adapter: 3 ID: 0
Режим чтения : Достоверность
Использование точного потока : Да
Отключение кэша аудио : Да
Использование указателей C2 : Нет
Коррекция смещения при чтении : 6
Способность читать области Lead-in и Lead-out : Нет
Заполнение пропущенных сэмплов тишиной : Да
Удаление блоков с тишиной в начале и конце : Нет
При вычислениях CRC использовались нулевые сэмплы : Да
Интерфейс : Установленный внешний ASPI-интерфейс
Выходной формат : Внутренние WAV-операции
Формат сэмплов : 44.100 Гц; 16 бит; стерео
TOC извлечённого CD
Трек | Старт | Длительность | Начальный сектор | Конечный сектор
---------------------------------------------------------------------
1 | 0:00.32 | 18:59.70 | 32 | 85526
2 | 19:00.27 | 16:11.55 | 85527 | 158406
3 | 35:12.07 | 15:43.03 | 158407 | 229134
4 | 50:55.10 | 14:08.60 | 229135 | 292794
Характеристики диапазона извлечения и сообщения об ошибках
Выбранный диапазон
Имя файла E:\FOS\MISIC\ANDERSON_FRED\The Fred Anderson Quartet - Birdhouse\The Fred Anderson Quartet - Birdhouse.wav
Пиковый уровень 100.0 %
Качество диапазона 100.0 %
CRC копии 2A03982E
Копирование... OK
Ошибок не произошло
Конец отчёта
Any questions -> support@pro-jazz.com. По всем вопросам пишите -> support@pro-jazz.com
20:29
132
Нет комментариев. Ваш будет первым!