Вы используете незарегистрированную версию компонента "Вкладки"!

Поиск

(Modern Composition / Free Improvisation / Unit Records) Peter Schärli (Scharli) - April Works - 1996, APE (image+.cue), lossless

(Modern Composition / Free Improvisation / Unit Records) Peter Schärli (Scharli) - April Works - 1996, APE (image+.cue), lossless
Треклист:
Peter Sсhärli - April Works
Лейбл: Unit Records (UTR 4095 CD)
Жанр: Modern Composition / Free Improvisation
Год выпуска диска: 1996
Год записи: 1991
Производитель диска: Swiss
Аудио кодек: APE
Тип рипа: image+.cue
Битрейт аудио: lossless
Продолжительность: 00:53:36
Источник: собственный рип с оригинального Audio CD
Сканы полиграфии: да
Трэклист:
1. Ndinderere (Stella Rambisai Chiweshe) (5:54)
2. Arrive (Dom Un Romão, Peter Sсhärli) (4:00)
3. Madonna (Roland Philipp, Peter Sсhärli) (11:17)
4. Berimbao (Dom Un Romão) (3:35)
5. Iwe Wangu - The sad love song (Stella Rambisai Chiweshe) (4:01)
6. Mondtage A (Peter Sсhärli) (3:52)
7. Mondtage B (Hämi Hämmerli, Roland Philipp) (1:56)
8. Temayimisasa (Stella Rambisai Chiweshe) (6:51)
9. Waiting again (Peter Sсhärli) (4:41)
10. Cha Chimurenga - The war song (Stella Rambisai Chiweshe) (4:17)
11. Another end (Peter Sсhärli) (2:53)
Доп. информация:
Musicians:
STELLA RAMBISAI CHIWESHE - mbira, vocal 1/5/8/9/10
DOM UN ROMÃO - percussion, vocal 1/2/3/4/6/8/9
BURHAN OEÇAL - percussion 1/3/5/6/8/9/10
BIBOUL DAROUICHE - percussion 1/3/5/6/8/9/10/11
LEONARD NGWENYA - percussion 8/10
FREDY STUDER - drums 3
HÄMI HÄMMERLI - bass 3/6/7/9
DAVID GATTIKER - cello, vocal 3/6/9
GLENN FERRIS - trombone 3/5/6/9
ROLAND PHILIPP - sax, flute 3/6/7/9
PETER SСHÄRLI - trumpet, flugelhorn 1/2/3/5/6/8/9/10/11
Recorded by René Zingg on April 1991
Mixed by Willy Kotoun, David Gattiker, Peter Sсhärli, René Zingg on March / April 1995 at Soundville Studios, Luzern
PETER SСHÄRLI homepage
PETER SСHÄRLI allmusic.com
PETER SСHÄRLI - April Works Unit Records
PETER SСHÄRLI - April Works allmusic.com
 
Scans / 72 dpi


 
Liner Notes:
Brillante Musik, mit einem Wort: Trompetermusik
Eine grosse Familie, die uns der Schweizer Trompeter Peter Schärli in seinem neuesten Werk präsentiert: fünf Perkussionisten aus aller Welt, drei Bläser, zwei abendländische Saiteninstrumente und die magische Stimme von Stella Rambisai Chiweshe, einer der originellsten Künstlerinnen der zeitgenössischen afrikanischen Musikszene, die sich auf der Mbira (dem jahrhundertealten Instrument aus Zimbabwe) begleitet. So wie die Musik hat auch diese Produktion eine Odyssee durchgemacht und liegt nun endlich, fünf Jahre nach ihrer Aufnahme, als CD vor. Peter Schärli ist nicht nur überzeugender Instrumentalist, er ist auch Planer, Kartenzeichner, Klangschmied, Steuermann und Stimmungsmaler. Die Musik dehnt sich aus wie eine Landschaft, in der sie am Ende, gut aufgehoben, wieder verschwindet. Grünbraune Oasen, blaugraue weite Ebenen, dunkelgrüne Urwälder, ockerschwarze Dünen, türkisblaue Meere neben Stadtansichten – folkig, rockig, jazzig. Unverkennbar, es ist Musik des Reisens – beileibe keine beliebige Musik und schon gar keine Pauschalreisenmusik – es ist Musik der weiten Horizonte. Es ist Musik des nie einzulösenden Sehnens und Suchens, der Sehnsucht nach der Fremde, der Ferne. Das mag der Grund sein für ihre gelegentliche, im Übrigen nicht unangenehme Sprödheit und Sperrigkeit. Und es ist Musik der Stimmen, der Stimmungen, Musik der späten Nachmittage, der längerwerdenden Schatten. Es ist stolze, brillante Musik, mit einem Wort: Trompetermusik.
 
EAC extraction logfile from 21. June 2010, 18:11
Exact Audio Copy V0.99 prebeta 4 from 23. January 2008
EAC extraction logfile from 21. June 2010, 18:11
Peter Scharli / April Works
Used drive : _NEC DVD_RW ND-3551A Adapter: 4 ID: 0
Read mode : Secure
Utilize accurate stream : Yes
Defeat audio cache : Yes
Make use of C2 pointers : No
Read offset correction : 48
Overread into Lead-In and Lead-Out : No
Fill up missing offset samples with silence : Yes
Delete leading and trailing silent blocks : No
Null samples used in CRC calculations : Yes
Used interface : Installed external ASPI interface
Used output format : Internal WAV Routines
Sample format : 44.100 Hz; 16 Bit; Stereo
TOC of the extracted CD
Track | Start | Length | Start sector | End sector
---------------------------------------------------------
1 | 0:00.00 | 5:56.30 | 0 | 26729
2 | 5:56.30 | 4:02.22 | 26730 | 44901
3 | 9:58.52 | 11:20.00 | 44902 | 95901
4 | 21:18.52 | 3:36.43 | 95902 | 112144
5 | 24:55.20 | 4:00.34 | 112145 | 130178
6 | 28:55.54 | 3:52.58 | 130179 | 147636
7 | 32:48.37 | 1:58.10 | 147637 | 156496
8 | 34:46.47 | 6:52.35 | 156497 | 187431
9 | 41:39.07 | 4:43.68 | 187432 | 208724
10 | 46:23.00 | 4:19.20 | 208725 | 228169
11 | 50:42.20 | 2:52.12 | 228170 | 241081
Range status and errors
Selected range
Filename G:\TORRENTS.ru_Audio CD\#045_Peter Sharli - April Works (1996)\Peter Sharli - April Works (1996)\Peter Scharli - April Works.wav
Peak level 99.9 %
Range quality 100.0 %
Test CRC 42D7BBDB
Copy CRC 42D7BBDB
Copy OK
No errors occurred
AccurateRip summary
Track 1 not present in database
Track 2 not present in database
Track 3 not present in database
Track 4 not present in database
Track 5 not present in database
Track 6 not present in database
Track 7 not present in database
Track 8 not present in database
Track 9 not present in database
Track 10 not present in database
Track 11 not present in database
None of the tracks are present in the AccurateRip database
End of status report
Any questions -> support@pro-jazz.com. По всем вопросам пишите -> support@pro-jazz.com
00:39
203
Нет комментариев. Ваш будет первым!