Вы используете незарегистрированную версию компонента "Вкладки"!

Поиск

(Free Jazz) Albert Mangelsdorff Meets Masahiko Sato - Spontaneous (1971) - 2008, FLAC (image+.cue), lossless

(Free Jazz) Albert Mangelsdorff Meets Masahiko Sato - Spontaneous (1971) - 2008, FLAC (image+.cue), lossless
Треклист:
Albert Mangelsdorff Meets Masahiko Sato - Spontaneous (1971)
Жанр: Free Jazz
Год выпуска диска: 2008
Производитель диска: Japan (Enja)
Аудио кодек: FLAC
Тип рипа: image+.cue
Битрейт аудио: lossless
Продолжительность: 52:42
Трэклист:
01 VOICES, NOISES, LUNGS'N'TONGUES STRINGS AND THINGS
02 ROOTS TO MOODS
03 LUDWIG VAN WATCHES
04 COSMOPOLITANS
05 ALMAPELA
Albert Mangelsdorff trombone
Masahiko Sato piano, modulator
Peter Warren bass
Alleb Blairman drums
Recorded in Audiu-Studio Berlin Nov 8, 1971
Доп. информация: в сканах
Источник: рип мой
 
отчёт ЕАС
Exact Audio Copy V0.99 prebeta 5 from 4. May 2009
EAC extraction logfile from 21. June 2010, 18:56
Albert Mangelsdorff Meets Masahiko Sato / Spontaneous
Used drive : Optiarc DVD RW AD-5200S Adapter: 1 ID: 0
Read mode : Secure
Utilize accurate stream : Yes
Defeat audio cache : Yes
Make use of C2 pointers : No
Read offset correction : 48
Overread into Lead-In and Lead-Out : No
Fill up missing offset samples with silence : Yes
Delete leading and trailing silent blocks : No
Null samples used in CRC calculations : Yes
Used interface : Installed external ASPI interface
Used output format : User Defined Encoder
Selected bitrate : 192 kBit/s
Quality : High
Add ID3 tag : No
Command line compressor : C:\Program Files\Burrrn\flac.exe
Additional command line options : -T "DATE=%y" -T "GENRE=%m" -8 -V %s
TOC of the extracted CD
Track | Start | Length | Start sector | End sector
---------------------------------------------------------
1 | 0:00.00 | 10:59.49 | 0 | 49473
2 | 10:59.49 | 12:12.66 | 49474 | 104439
3 | 23:12.40 | 6:00.48 | 104440 | 131487
4 | 29:13.13 | 12:55.06 | 131488 | 189618
5 | 42:08.19 | 10:33.51 | 189619 | 237144
Range status and errors
Selected range
Filename F:\EAC\Новая папка\Albert Mangelsdorff Meets Masahiko Sato - Spontaneous.wav
Peak level 96.7 %
Range quality 99.9 %
Test CRC 759FCFD6
Copy CRC 759FCFD6
Copy OK
No errors occurred
AccurateRip summary
Track 1 not present in database
Track 2 not present in database
Track 3 not present in database
Track 4 not present in database
Track 5 not present in database
None of the tracks are present in the AccurateRip database
End of status report
По всем вопросам пишите личное сообщение пользователю M0p94ok.
00:40
222
Нет комментариев. Ваш будет первым!