Вы используете незарегистрированную версию компонента "Вкладки"!

Поиск

(free jazz, post-bop, modal) The Bennie Maupin Ensemble - Penumbra - 2006, FLAC (tracks+.cue), lossless

Треклист:
The Bennie Maupin Ensemble
Penumbra
Жанр: free jazz, post-bop, modal
Год выпуска диска: 2006
Производитель диска: Cryptogramophone Records (CG129)
Аудио кодек: FLAC
Тип рипа: tracks+.cue + Complete Artwork
Битрейт аудио: lossless
Продолжительность: 01:00:30
Трэклист:
01. Neophilia 2006
02. Walter Bishop Jr.
03. Level Three
04. Blinkers
05. Penumbra
06. Mirror Image
07. Message to Prez
08. Tapping Things
09. Vapors
10. One for Eric Dolphy
11. See the Positive
12. Trope on a Rope
13. The 12th Day
14. Equal Justice
 
log
EAC extraction logfile from 27. July 2007, 23:44 for CD
Bennie Maupin Ensemble / Penumbra
Used drive : _NEC DVD_RW ND-3520A Adapter: 0 ID: 1
Read mode : Secure with NO C2, accurate stream, disable cache
Read offset correction : 48
Overread into Lead-In and Lead-Out : No
Used output format : C:\Program Files\audiorip\Flac\bin\flac.exe (User Defined Encoder)
192 kBit/s
Additional command line options : --best -V -T "artist=%a" -T "title=%t" -T "album=%g" -T "date=%y" -T "tracknumber=%n" -T "genre=%m" -T "comment=Lossless FLAC" %s
Other options :
Fill up missing offset samples with silence : Yes
Delete leading and trailing silent blocks : No
Installed external ASPI interface
Track 1
Filename H:\Audiorip\Bennie Maupin Ensemble - Penumbra - 2006\01 - Neophilia 2006.wav
Peak level 94.4 %
Track quality 100.0 %
Test CRC CF325F94
Copy CRC CF325F94
Copy OK
Track 2
Filename H:\Audiorip\Bennie Maupin Ensemble - Penumbra - 2006\02 - Walter Bishop Jr..wav
Peak level 94.4 %
Track quality 100.0 %
Test CRC B15E77F2
Copy CRC B15E77F2
Copy OK
Track 3
Filename H:\Audiorip\Bennie Maupin Ensemble - Penumbra - 2006\03 - Level Three.wav
Peak level 94.4 %
Track quality 100.0 %
Test CRC 396E1C35
Copy CRC 396E1C35
Copy OK
Track 4
Filename H:\Audiorip\Bennie Maupin Ensemble - Penumbra - 2006\04 - Blinkers.wav
Peak level 94.4 %
Track quality 100.0 %
Test CRC 93A1A539
Copy CRC 93A1A539
Copy OK
Track 5
Filename H:\Audiorip\Bennie Maupin Ensemble - Penumbra - 2006\05 - Penumbra.wav
Peak level 94.4 %
Track quality 100.0 %
Test CRC CEA9B7EA
Copy CRC CEA9B7EA
Copy OK
Track 6
Filename H:\Audiorip\Bennie Maupin Ensemble - Penumbra - 2006\06 - Mirror Image.wav
Peak level 77.2 %
Track quality 100.0 %
Test CRC 165E0990
Copy CRC 165E0990
Copy OK
Track 7
Filename H:\Audiorip\Bennie Maupin Ensemble - Penumbra - 2006\07 - Message To Prez.wav
Peak level 94.3 %
Track quality 99.9 %
Test CRC CE63E2DD
Copy CRC CE63E2DD
Copy OK
Track 8
Filename H:\Audiorip\Bennie Maupin Ensemble - Penumbra - 2006\08 - Tapping Things.wav
Peak level 94.4 %
Track quality 99.9 %
Test CRC A234383A
Copy CRC A234383A
Copy OK
Track 9
Filename H:\Audiorip\Bennie Maupin Ensemble - Penumbra - 2006\09 - Vapors.wav
Peak level 94.4 %
Track quality 99.9 %
Test CRC 84452B11
Copy CRC 84452B11
Copy OK
Track 10
Filename H:\Audiorip\Bennie Maupin Ensemble - Penumbra - 2006\10 - One For Eric Dolphy.wav
Peak level 92.5 %
Track quality 100.0 %
Test CRC A74EE1BE
Copy CRC A74EE1BE
Copy OK
Track 11
Filename H:\Audiorip\Bennie Maupin Ensemble - Penumbra - 2006\11 - See The Positive.wav
Peak level 94.4 %
Track quality 100.0 %
Test CRC A97B7914
Copy CRC A97B7914
Copy OK
Track 12
Filename H:\Audiorip\Bennie Maupin Ensemble - Penumbra - 2006\12 - Trope On A Rope.wav
Peak level 94.4 %
Track quality 100.0 %
Test CRC E9AB3B81
Copy CRC E9AB3B81
Copy OK
Track 13
Filename H:\Audiorip\Bennie Maupin Ensemble - Penumbra - 2006\13 - The 12th Day.wav
Peak level 94.4 %
Track quality 100.0 %
Test CRC EA4E38AB
Copy CRC EA4E38AB
Copy OK
Track 14
Filename H:\Audiorip\Bennie Maupin Ensemble - Penumbra - 2006\14 - Equal Justice.wav
Peak level 94.4 %
Track quality 99.9 %
Test CRC BBF2F5AA
Copy CRC BBF2F5AA
Copy OK
No errors occured
End of status report
 
cue
REM GENRE Jazz
REM DATE 2006
REM DISCID DF0E2E0E
REM COMMENT "ExactAudioCopy v0.95b4"
PERFORMER "Bennie Maupin Ensemble"
TITLE "Penumbra"
FILE "Bennie Maupin Ensemble - Penumbra - 2006\01 - Neophilia 2006.wav" WAVE
TRACK 01 AUDIO
TITLE "Neophilia 2006"
PERFORMER "Bennie Maupin Ensemble"
ISRC USA4K0612901
INDEX 01 00:00:00
TRACK 02 AUDIO
TITLE "Walter Bishop Jr."
PERFORMER "Bennie Maupin Ensemble"
ISRC USA4K0612902
INDEX 00 04:31:14
FILE "Bennie Maupin Ensemble - Penumbra - 2006\02 - Walter Bishop Jr..wav" WAVE
INDEX 01 00:00:00
TRACK 03 AUDIO
TITLE "Level Three"
PERFORMER "Bennie Maupin Ensemble"
ISRC USA4K0612903
INDEX 00 06:32:61
FILE "Bennie Maupin Ensemble - Penumbra - 2006\03 - Level Three.wav" WAVE
INDEX 01 00:00:00
TRACK 04 AUDIO
TITLE "Blinkers"
PERFORMER "Bennie Maupin Ensemble"
ISRC USA4K0612904
INDEX 00 03:15:23
FILE "Bennie Maupin Ensemble - Penumbra - 2006\04 - Blinkers.wav" WAVE
INDEX 01 00:00:00
TRACK 05 AUDIO
TITLE "Penumbra"
PERFORMER "Bennie Maupin Ensemble"
ISRC USA4K0612905
INDEX 00 01:20:28
FILE "Bennie Maupin Ensemble - Penumbra - 2006\05 - Penumbra.wav" WAVE
INDEX 01 00:00:00
TRACK 06 AUDIO
TITLE "Mirror Image"
PERFORMER "Bennie Maupin Ensemble"
ISRC USA4K0612906
INDEX 00 07:00:26
FILE "Bennie Maupin Ensemble - Penumbra - 2006\06 - Mirror Image.wav" WAVE
INDEX 01 00:00:00
TRACK 07 AUDIO
TITLE "Message To Prez"
PERFORMER "Bennie Maupin Ensemble"
ISRC USA4K0612907
INDEX 00 01:13:03
FILE "Bennie Maupin Ensemble - Penumbra - 2006\07 - Message To Prez.wav" WAVE
INDEX 01 00:00:00
TRACK 08 AUDIO
TITLE "Tapping Things"
PERFORMER "Bennie Maupin Ensemble"
ISRC USA4K0612908
INDEX 00 06:02:25
FILE "Bennie Maupin Ensemble - Penumbra - 2006\08 - Tapping Things.wav" WAVE
INDEX 01 00:00:00
TRACK 09 AUDIO
TITLE "Vapors"
PERFORMER "Bennie Maupin Ensemble"
ISRC USA4K0612909
INDEX 00 05:35:24
FILE "Bennie Maupin Ensemble - Penumbra - 2006\09 - Vapors.wav" WAVE
INDEX 01 00:00:00
TRACK 10 AUDIO
TITLE "One For Eric Dolphy"
PERFORMER "Bennie Maupin Ensemble"
ISRC USA4K0612910
INDEX 00 04:44:07
FILE "Bennie Maupin Ensemble - Penumbra - 2006\10 - One For Eric Dolphy.wav" WAVE
INDEX 01 00:00:00
TRACK 11 AUDIO
TITLE "See The Positive"
PERFORMER "Bennie Maupin Ensemble"
ISRC USA4K0612911
INDEX 00 02:33:68
FILE "Bennie Maupin Ensemble - Penumbra - 2006\11_See The Positive.wav" WAVE
INDEX 01 00:00:00
TRACK 12 AUDIO
TITLE "Trope On A Rope"
PERFORMER "Bennie Maupin Ensemble"
ISRC USA4K0612912
INDEX 00 02:47:47
FILE "Bennie Maupin Ensemble - Penumbra - 2006\12 - Trope On A Rope.wav" WAVE
INDEX 01 00:00:00
TRACK 13 AUDIO
TITLE "The 12th Day"
PERFORMER "Bennie Maupin Ensemble"
ISRC USA4K0612913
INDEX 00 03:47:40
FILE "Bennie Maupin Ensemble - Penumbra - 2006\13 - The 12th Day.wav" WAVE
INDEX 01 00:00:00
TRACK 14 AUDIO
TITLE "Equal Justice"
PERFORMER "Bennie Maupin Ensemble"
ISRC USA4K0612914
INDEX 00 02:54:08
FILE "Bennie Maupin Ensemble - Penumbra - 2006\14 - Equal Justice.wav" WAVE
INDEX 01 00:00:00

Personnel:
Bennie Maupin - bass clarinet, tenor & soprano saxophones, alto flute, piano
Darek "Oles" Oleszkiewicz - bass
Michael Stephans - drums
Daryl Munyungo Jackson - percussion
 
about
Bennie Maupin, whose bass clarinet work helped define Miles Davis' classic Bitches Brew (Columbia, 1969), was an equally key contributor to Herbie Hancock's 1970s Mwandishi and Headhunters groups. In light of this, it's hard to believe that he has released only six albums as a leader during his lengthy career. One bona fide classic, The Jewel in the Lotus (ECM, 1974), sadly awaits issue on CD, and another disc comes very close: Driving While Black (Intuition, 1997).
But while both of these records had clear precedence in Mwandishi and electric Miles, Penumbra is an all-acoustic affair, featuring long-time associate Daryl Munyungo Jackson on percussion, drummer Michael Stephans and bassist Darek "Oles" Oleszkiewicz. Chordless groups aren't particularly unusual, but by focusing on bass clarinet and using two percussionists instead of the more conventional two horns/bass/drums lineup, this quartet occupies a darker, earthier space. The grooves range from the fiery swing of "Vapors," featuring Maupin on soprano, to the 6/8 funk of "Tapping Things," where Maupin's bass clarinet delivers the elliptical theme in unison with Oles, before opening up into a more interactive conversation. There's little here to jar the senses.
Still, this may be Maupin's freest session. "Walter Bishop Jr.," featuring Maupin on tenor saxophone, is the kind of modal music that Coltrane might have made if his vision had been less intense. Rather than creating sheets of sound, Maupin concerns himself with space, allowing every note to breathe. Every now and then a flurry of notes evidences his instrumental facility, but he's more concerned with a tranquil sense of the spiritual—close, at times, to Charles Lloyd's more meditative work.
Oles has only emerged on the Los Angeles scene in the past few years, and his debut as a leader, Like a Dream (Cryptogramophone, 2004), demonstrated an equal marriage of technique and spare economy. The bassist proves to be a remarkable listener here. On the free-ish but clearly form-based "Level Three" he manages, along with Stephans' astute brushwork, to anticipate Maupin's every move. Jackson is sometimes so subtle as to be almost invisible, meshing seamlessly with Stephans on the guarded ebullience of "Message to Prez," but more up front on "See the Positive" and "The 12th Day"—the two most uplifting tracks on Penumbra.
Maupin contributes rich alto flute to the African-tinged title track and blends European classicism with American concerns on the closing ballad, "Equal Justice," proving himself a capable pianist. But the bass clarinet is his main axe, and the solo "One for Eric Dolphy" is both an homage and statement of individual intent. Penumbra may surprise listeners expecting Maupin to carry on the electric vibe of The Jewel in the Lotus and Driving While Black, but in many ways the looser organic nature of this effort makes it his most personal and satisfying record to date.


Диск взят с ослосети
Any questions -> support@pro-jazz.com. По всем вопросам пишите -> support@pro-jazz.com
00:39
157
Нет комментариев. Ваш будет первым!