Вы используете незарегистрированную версию компонента "Вкладки"!

Поиск

(Modern Composition, Avant-Garde, Experimental) The Abstractions - Novo Navigatio - 2004, FLAC (tracks+.cue), lossless

(Modern Composition, Avant-Garde, Experimental) The Abstractions - Novo Navigatio - 2004, FLAC (tracks+.cue), lossless
Треклист:
The Abstractions / Novo Navigatio
Жанр: Modern Composition, Avant-Garde, Experimental
Страна-производитель диска: US
Год издания: 2004
Издатель (лейбл): Pax Recordings / Edgetone Records CD-R
Номер по каталогу: EDT4027 / PR90275
Страна: US
Аудиокодек: FLAC (*.flac)
Тип рипа: tracks+.cue
Битрейт аудио: lossless
Продолжительность: 47:46
Источник (релизер): свой фирменный диск
Наличие сканов в содержимом раздачи:
Треклист:
1. Freedom From The Known 1:14
2. Our Gov. Schwarzenegger 1:01
3. Media & Money Our deMOCKracy 3:29
4. Lament The Fallen 1:47
5. Take Off Leave Now Never Come Back 1:16
6. Christian Bush 3:57
7. Noise? What! 0:41
8. Epiphany In Bitter Blue 1:28
9. Bronze Tear Pass 2:34
10. Take Yourself Seriously 4:51
11. Red Dusk Over Red Dawn 4:02
12. The Routinization Of Modern Life 3:35
13. Baroque In Black Fugue 2:53
14. Who Killed Desiree Brown 4:45
15. The Moon, My Visions 1:26
16. Of Phantasmagoric Supposition 1:52
17. Voodoo In America? 3:49
18. Deadly Silence 1:46
19. Burn It Down 1:26
 
Лог создания рипа
Exact Audio Copy V1.0 beta 3 from 29. August 2011
EAC extraction logfile from 7. October 2013, 23:03
The Abstractions / Novo Navigatio
Used drive : PIONEER DVD-RW DVR-115D Adapter: 0 ID: 0
Read mode : Secure
Utilize accurate stream : Yes
Defeat audio cache : Yes
Make use of C2 pointers : No
Read offset correction : 48
Overread into Lead-In and Lead-Out : No
Fill up missing offset samples with silence : Yes
Delete leading and trailing silent blocks : No
Null samples used in CRC calculations : Yes
Used interface : Installed external ASPI interface
Gap handling : Appended to previous track
Used output format : User Defined Encoder
Selected bitrate : 896 kBit/s
Quality : High
Add ID3 tag : No
Command line compressor : C:\Program Files\Exact Audio Copy\FLAC\FLAC.EXE
Additional command line options : -6 -V -T "ARTIST=%artist%" -T "TITLE=%title%" -T "ALBUM=%albumtitle%" -T "DATE=%year%" -T "TRACKNUMBER=%tracknr%" -T "GENRE=%genre%" -T "COMMENT=%comment%" -T "BAND=%albuminterpret%" -T "COMPOSER=%composer%" %haslyrics%--tag-from-file=LYRICS="%lyricsfile%"%haslyrics% -T "DISCNUMBER=%cdnumber%" -T "TOTALDISCS=%totalcds%" -T "TOTALTRACKS=%numtracks%" %hascover%--picture="%coverfile%"%hascover% %source% -o %dest%
TOC of the extracted CD
Track | Start | Length | Start sector | End sector
---------------------------------------------------------
1 | 0:00.00 | 1:13.37 | 0 | 5511
2 | 1:13.37 | 1:00.30 | 5512 | 10041
3 | 2:13.67 | 3:28.36 | 10042 | 25677
4 | 5:42.28 | 1:45.68 | 25678 | 33620
5 | 7:28.21 | 1:14.46 | 33621 | 39216
6 | 8:42.67 | 3:55.59 | 39217 | 56900
7 | 12:38.51 | 0:39.61 | 56901 | 59886
8 | 13:18.37 | 1:27.02 | 59887 | 66413
9 | 14:45.39 | 2:33.13 | 66414 | 77901
10 | 17:18.52 | 4:50.58 | 77902 | 99709
11 | 22:09.35 | 4:01.07 | 99710 | 117791
12 | 26:10.42 | 3:33.52 | 117792 | 133818
13 | 29:44.19 | 2:52.05 | 133819 | 146723
14 | 32:36.24 | 4:44.39 | 146724 | 168062
15 | 37:20.63 | 1:25.02 | 168063 | 174439
16 | 38:45.65 | 1:51.46 | 174440 | 182810
17 | 40:37.36 | 3:49.67 | 182811 | 200052
18 | 44:27.28 | 1:53.18 | 200053 | 208545
19 | 46:20.46 | 1:25.38 | 208546 | 214958
Track 1
Filename D:\zzz\01 - Freedom From The Known.wav
Pre-gap length 0:00:02.00
Peak level 99.0 %
Extraction speed 3.3 X
Track quality 100.0 %
Test CRC 5303481F
Copy CRC 5303481F
Accurately ripped (confidence 1) [9EDAEFBA] (AR v2)
Copy OK
Track 2
Filename D:\zzz\02 - Our Gov. Schwarzenegger.wav
Peak level 99.0 %
Extraction speed 2.3 X
Track quality 99.8 %
Test CRC 041CC15F
Copy CRC 041CC15F
Accurately ripped (confidence 1) [261544BF] (AR v2)
Copy OK
Track 3
Filename D:\zzz\03 - Media & Money Our deMOCKracy.wav
Peak level 99.0 %
Extraction speed 4.1 X
Track quality 99.9 %
Test CRC FF666251
Copy CRC FF666251
Accurately ripped (confidence 1) [B0119FB2] (AR v2)
Copy OK
Track 4
Filename D:\zzz\04 - Lament The Fallen.wav
Peak level 99.0 %
Extraction speed 3.4 X
Track quality 99.8 %
Test CRC A725FABC
Copy CRC A725FABC
Accurately ripped (confidence 1) [F87C8C68] (AR v2)
Copy OK
Track 5
Filename D:\zzz\05 - Take Off Leave Now Never Come Back.wav
Peak level 99.0 %
Extraction speed 3.9 X
Track quality 100.0 %
Test CRC DA61CE6E
Copy CRC DA61CE6E
Accurately ripped (confidence 1) [7FAAD138] (AR v2)
Copy OK
Track 6
Filename D:\zzz\06 - Christian Bush.wav
Peak level 100.0 %
Extraction speed 5.3 X
Track quality 100.0 %
Test CRC EE10ACFE
Copy CRC EE10ACFE
Accurately ripped (confidence 1) [A675CF1D] (AR v2)
Copy OK
Track 7
Filename D:\zzz\07 - Noise What!.wav
Peak level 99.0 %
Extraction speed 2.2 X
Track quality 99.7 %
Test CRC D4673387
Copy CRC D4673387
Accurately ripped (confidence 1) [7CB1B6F9] (AR v2)
Copy OK
Track 8
Filename D:\zzz\08 - Epiphany In Bitter Blue.wav
Peak level 99.0 %
Extraction speed 4.5 X
Track quality 100.0 %
Test CRC BE102257
Copy CRC BE102257
Accurately ripped (confidence 1) [0EAC9A21] (AR v2)
Copy OK
Track 9
Filename D:\zzz\09 - Bronze Tear Pass.wav
Peak level 99.0 %
Extraction speed 5.3 X
Track quality 100.0 %
Test CRC 074F0211
Copy CRC 074F0211
Accurately ripped (confidence 1) [CD0E48C2] (AR v2)
Copy OK
Track 10
Filename D:\zzz\10 - Take Yourself Seriously.wav
Peak level 100.0 %
Extraction speed 6.1 X
Track quality 100.0 %
Test CRC 6B338740
Copy CRC 6B338740
Accurately ripped (confidence 1) [1E97FADF] (AR v2)
Copy OK
Track 11
Filename D:\zzz\11 - Red Dusk Over Red Dawn.wav
Peak level 99.0 %
Extraction speed 6.2 X
Track quality 100.0 %
Test CRC 6EE2DF8C
Copy CRC 6EE2DF8C
Accurately ripped (confidence 1) [0C2C07EC] (AR v2)
Copy OK
Track 12
Filename D:\zzz\12 - The Routinization Of Modern Life.wav
Peak level 99.0 %
Extraction speed 6.4 X
Track quality 100.0 %
Test CRC 15B91B80
Copy CRC 15B91B80
Accurately ripped (confidence 1) [291821CF] (AR v2)
Copy OK
Track 13
Filename D:\zzz\13 - Baroque In Black Fugue.wav
Peak level 99.0 %
Extraction speed 6.3 X
Track quality 100.0 %
Test CRC 4B712BF6
Copy CRC 4B712BF6
Accurately ripped (confidence 1) [63C619C3] (AR v2)
Copy OK
Track 14
Filename D:\zzz\14 - Who Killed Desiree Brown.wav
Pre-gap length 0:00:00.01
Peak level 100.0 %
Extraction speed 6.3 X
Track quality 99.9 %
Test CRC 9E5A4638
Copy CRC 9E5A4638
Accurately ripped (confidence 1) [964A4D03] (AR v2)
Copy OK
Track 15
Filename D:\zzz\15 - The Moon, My Visions.wav
Peak level 99.0 %
Extraction speed 5.5 X
Track quality 100.0 %
Test CRC FC84E829
Copy CRC FC84E829
Accurately ripped (confidence 1) [7FC34BDC] (AR v2)
Copy OK
Track 16
Filename D:\zzz\16 - Of Phantasmagoric Supposition.wav
Peak level 100.0 %
Extraction speed 6.1 X
Track quality 100.0 %
Test CRC DE986D52
Copy CRC DE986D52
Accurately ripped (confidence 1) [5D841E08] (AR v2)
Copy OK
Track 17
Filename D:\zzz\17 - Voodoo In America.wav
Peak level 100.0 %
Extraction speed 7.1 X
Track quality 100.0 %
Test CRC DB3A54B6
Copy CRC DB3A54B6
Accurately ripped (confidence 1) [5397CEE1] (AR v2)
Copy OK
Track 18
Filename D:\zzz\18 - Deadly Silence.wav
Peak level 99.0 %
Extraction speed 5.2 X
Track quality 99.9 %
Test CRC 2144FEC0
Copy CRC 2144FEC0
Accurately ripped (confidence 1) [F2048234] (AR v2)
Copy OK
Track 19
Filename D:\zzz\19 - Burn It Down.wav
Peak level 99.0 %
Extraction speed 6.0 X
Track quality 100.0 %
Test CRC 88784A0F
Copy CRC 88784A0F
Accurately ripped (confidence 1) [E9E14143] (AR v2)
Copy OK
All tracks accurately ripped
No errors occurred
End of status report
==== Log checksum 74403D30A4E53F45C5554B4DF871423D20D6AA6F383F3B30595F4468C969656B ====
 
Содержание индексной карты (.CUE)
REM GENRE "Far Out!"
REM DATE 2004
REM DISCID 000B3213
REM COMMENT "ExactAudioCopy v1.0b3"
PERFORMER "The Abstractions"
TITLE "Novo Navigatio"
FILE "01 - Freedom From The Known.wav" WAVE
TRACK 01 AUDIO
TITLE "Freedom From The Known"
PERFORMER "The Abstractions"
INDEX 01 00:00:00
FILE "02 - Our Gov. Schwarzenegger.wav" WAVE
TRACK 02 AUDIO
TITLE "Our Gov. Schwarzenegger"
PERFORMER "The Abstractions"
INDEX 01 00:00:00
FILE "03 - Media & Money Our deMOCKracy.wav" WAVE
TRACK 03 AUDIO
TITLE "Media & Money Our deMOCKracy"
PERFORMER "The Abstractions"
INDEX 01 00:00:00
FILE "04 - Lament The Fallen.wav" WAVE
TRACK 04 AUDIO
TITLE "Lament The Fallen"
PERFORMER "The Abstractions"
INDEX 01 00:00:00
FILE "05 - Take Off Leave Now Never Come Back.wav" WAVE
TRACK 05 AUDIO
TITLE "Take Off Leave Now Never Come Back"
PERFORMER "The Abstractions"
INDEX 01 00:00:00
FILE "06 - Christian Bush.wav" WAVE
TRACK 06 AUDIO
TITLE "Christian Bush"
PERFORMER "The Abstractions"
INDEX 01 00:00:00
FILE "07 - Noise What!.wav" WAVE
TRACK 07 AUDIO
TITLE "Noise? What!"
PERFORMER "The Abstractions"
INDEX 01 00:00:00
FILE "08 - Epiphany In Bitter Blue.wav" WAVE
TRACK 08 AUDIO
TITLE "Epiphany In Bitter Blue"
PERFORMER "The Abstractions"
INDEX 01 00:00:00
FILE "09 - Bronze Tear Pass.wav" WAVE
TRACK 09 AUDIO
TITLE "Bronze Tear Pass"
PERFORMER "The Abstractions"
INDEX 01 00:00:00
FILE "10 - Take Yourself Seriously.wav" WAVE
TRACK 10 AUDIO
TITLE "Take Yourself Seriously"
PERFORMER "The Abstractions"
INDEX 01 00:00:00
FILE "11 - Red Dusk Over Red Dawn.wav" WAVE
TRACK 11 AUDIO
TITLE "Red Dusk Over Red Dawn"
PERFORMER "The Abstractions"
INDEX 01 00:00:00
FILE "12 - The Routinization Of Modern Life.wav" WAVE
TRACK 12 AUDIO
TITLE "The Routinization Of Modern Life"
PERFORMER "The Abstractions"
INDEX 01 00:00:00
FILE "13 - Baroque In Black Fugue.wav" WAVE
TRACK 13 AUDIO
TITLE "Baroque In Black Fugue"
PERFORMER "The Abstractions"
INDEX 01 00:00:00
TRACK 14 AUDIO
TITLE "Who Killed Desiree Brown"
PERFORMER "The Abstractions"
INDEX 00 02:52:04
FILE "14 - Who Killed Desiree Brown.wav" WAVE
INDEX 01 00:00:00
FILE "15 - The Moon, My Visions.wav" WAVE
TRACK 15 AUDIO
TITLE "The Moon, My Visions"
PERFORMER "The Abstractions"
INDEX 01 00:00:00
FILE "16 - Of Phantasmagoric Supposition.wav" WAVE
TRACK 16 AUDIO
TITLE "Of Phantasmagoric Supposition"
PERFORMER "The Abstractions"
INDEX 01 00:00:00
FILE "17 - Voodoo In America.wav" WAVE
TRACK 17 AUDIO
TITLE "Voodoo In America?"
PERFORMER "The Abstractions"
INDEX 01 00:00:00
FILE "18 - Deadly Silence.wav" WAVE
TRACK 18 AUDIO
TITLE "Deadly Silence"
PERFORMER "The Abstractions"
INDEX 01 00:00:00
FILE "19 - Burn It Down.wav" WAVE
TRACK 19 AUDIO
TITLE "Burn It Down"
PERFORMER "The Abstractions"
INDEX 01 00:00:00
 
Лог проверки качества
d:\>d:\aucdtect -d/-m0 d:\zzz\*.wav
auCDtect: CD records authenticity detector, version 0.8.2
Copyright (c) 2004 Oleg Berngardt. All rights reserved.
Copyright (c) 2004 Alexander Djourik. All rights reserved.
------------------------------------------------------------
Processing file: [01. Freedom From The Known.wav]
------------------------------------------------------------
This track looks like CDDA with probability 100%
------------------------------------------------------------
Processing file: [02. Our Gov. Schwarzenegger.wav]
------------------------------------------------------------
This track looks like CDDA with probability 100%
------------------------------------------------------------
Processing file: [03. Media & Money Our deMOCKracy.wav]
------------------------------------------------------------
This track looks like CDDA with probability 100%
------------------------------------------------------------
Processing file: [04. Lament The Fallen.wav]
------------------------------------------------------------
This track looks like CDDA with probability 100%
------------------------------------------------------------
Processing file: [05. Take Off Leave Now Never Come Back.wav]
------------------------------------------------------------
This track looks like CDDA with probability 87%
------------------------------------------------------------
Processing file: [06. Christian Bush.wav]
------------------------------------------------------------
This track looks like CDDA with probability 100%
------------------------------------------------------------
Processing file: [07. Noise What!.wav]
------------------------------------------------------------
This track looks like CDDA with probability 100%
------------------------------------------------------------
Processing file: [08. Epiphany In Bitter Blue.wav]
------------------------------------------------------------
This track looks like CDDA with probability 100%
------------------------------------------------------------
Processing file: [09. Bronze Tear Pass.wav]
------------------------------------------------------------
This track looks like CDDA with probability 100%
------------------------------------------------------------
Processing file: [10. Take Yourself Seriously.wav]
------------------------------------------------------------
This track looks like CDDA with probability 100%
------------------------------------------------------------
Processing file: [11. Red Dusk Over Red Dawn.wav]
------------------------------------------------------------
This track looks like CDDA with probability 100%
------------------------------------------------------------
Processing file: [12. The Routinization Of Modern Life.wav]
------------------------------------------------------------
This track looks like CDDA with probability 100%
------------------------------------------------------------
Processing file: [13. Baroque In Black Fugue.wav]
------------------------------------------------------------
This track looks like CDDA with probability 100%
------------------------------------------------------------
Processing file: [14. Who Killed Desiree Brown.wav]
------------------------------------------------------------
This track looks like CDDA with probability 100%
------------------------------------------------------------
Processing file: [15. The Moon, My Visions.wav]
------------------------------------------------------------
This track looks like CDDA with probability 100%
------------------------------------------------------------
Processing file: [16. Of Phantasmagoric Supposition.wav]
------------------------------------------------------------
This track looks like CDDA with probability 100%
------------------------------------------------------------
Processing file: [17. Voodoo In America.wav]
------------------------------------------------------------
This track looks like CDDA with probability 76%
------------------------------------------------------------
Processing file: [18. Deadly Silence.wav]
------------------------------------------------------------
This track looks like CDDA with probability 100%
------------------------------------------------------------
Processing file: [19. Burn It Down.wav]
------------------------------------------------------------
This track looks like CDDA with probability 100%
------------------------------------------------------------
Final Conclusion:
------------------------------------------------------------
These tracks looks like CDDA with probability 100%
Доп. информация:
 
Album Info & Review
Recorded/mixed/mastered by Ray Schaeffer at Nazmir Kelpcut Research Ranch, Richmond California 2003
Field recordings by Ernesto Diaz-Infante, Sacramento California 2003
Layout/Design/Art by Tohru Kanayama
Lyrics 3,6,10,12 (C)2004 Marjorie Sturm
Lyrics 14 (C)2004 Philip Everett
An incredible group of musicins full of talent and imagination get together on this album that has nineteen tracks of pure improvisation. Here we have musicians whose work we have reviewed before like Ernesto Diaz-Infante. Most of the nineteen compositions are short (less than two minutes) and they are designed as bursts of pure experimentation. And here you have many sounds that you can not believe that are coming from an instrument, and also experimentation with voices (that are choral works). There are from strange melodies here to sounds and noises. There is interesting experimentation with percussion (such as in track number four) and there are very atmospheric improvisations like the winds blowing in track 8. This is a pure experimental release done by the masters of the style.
 
Состав
Rent Romus: alto, soprano, c-melody saxophones, flute, voice/vocals/zitherod, accordian
Ernesto Diaz-Infante: vocals, acoustic steelstring guitar, 4-track cassette portastudio, field recordings
Bob Marsh: cello, voice
Philip Everett: drums, percussion, autoharp, lyrics
Lance Grabmiller: laptop
Dina Emerson: vocals
Sandor Finta: vocals
Marina Lazzara: vocals, electric guitar
Alwyn Quebido: electric guitar
C.J. Reaven Borosque: noise pedals, prepared guitar
Matt Davignon: turntable, drum machine, cans
Marjorie Sturm: flute, lyrics
Ray Schaeffer: electric bass
По всем вопросам пишите личное сообщение пользователю M0p94ok.
18:56
141
Нет комментариев. Ваш будет первым!