Вы используете незарегистрированную версию компонента "Вкладки"!

Поиск

(Avant-Garde Jazz, Free Jazz, Nine Winds) New Orchestra Workshop - Now You Hear It - 1992, FLAC (tracks+.cue), lossless

(Avant-Garde Jazz, Free Jazz, Nine Winds) New Orchestra Workshop - Now You Hear It - 1992, FLAC (tracks+.cue), lossless
Треклист:
New Orchestra Workshop / Now You Hear It
Жанр: Avant-Garde Jazz, Free Jazz, Nine Winds
Страна-производитель диска: US
Год издания: 1992
Издатель (лейбл): 9 Winds
Номер по каталогу: NWCD 0151
Страна: Canada
Аудиокодек: FLAC (*.flac)
Тип рипа: tracks+.cue
Битрейт аудио: lossless
Продолжительность: 67:45
Источник (релизер): свой фирменный диск
Наличие сканов в содержимом раздачи:
Треклист:
1. Lunar Adventures - Leddis Presso 6:13
2. Lunar Adventures - Solomon 6:10
3. Roger Baird & MuseArt - Blues Out 11:50
4. Bruce Freedman Trio - Freestrum 5:21
5. Bruce Freedman Trio - Carol 4:03
6. Paul Plimley / Clyde Reed Duo - All Out For The Get Go 1:42
7. Paul Plimley / Clyde Reed Duo - Carving Still Shadows 3:43
8. Paul Plimley / Clyde Reed Duo - Rune Variations 5:45
9. Garbo's Hat - Ossisil's Topic 4:58
10. Garbo's Hat - New Directions 5:46
11. Graham Ord, Paul Blaney & Roger Baird - Extra Bar 10:31
 
Лог создания рипа
Exact Audio Copy V1.0 beta 3 from 29. August 2011
EAC extraction logfile from 7. October 2013, 0:06
New Orchestra Workshop / Now You Hear It
Used drive : PIONEER DVD-RW DVR-115D Adapter: 0 ID: 0
Read mode : Secure
Utilize accurate stream : Yes
Defeat audio cache : Yes
Make use of C2 pointers : No
Read offset correction : 48
Overread into Lead-In and Lead-Out : No
Fill up missing offset samples with silence : Yes
Delete leading and trailing silent blocks : No
Null samples used in CRC calculations : Yes
Used interface : Installed external ASPI interface
Gap handling : Appended to previous track
Used output format : User Defined Encoder
Selected bitrate : 896 kBit/s
Quality : High
Add ID3 tag : No
Command line compressor : C:\Program Files\Exact Audio Copy\FLAC\FLAC.EXE
Additional command line options : -6 -V -T "ARTIST=%artist%" -T "TITLE=%title%" -T "ALBUM=%albumtitle%" -T "DATE=%year%" -T "TRACKNUMBER=%tracknr%" -T "GENRE=%genre%" -T "COMMENT=%comment%" -T "BAND=%albuminterpret%" -T "COMPOSER=%composer%" %haslyrics%--tag-from-file=LYRICS="%lyricsfile%"%haslyrics% -T "DISCNUMBER=%cdnumber%" -T "TOTALDISCS=%totalcds%" -T "TOTALTRACKS=%numtracks%" %hascover%--picture="%coverfile%"%hascover% %source% -o %dest%
TOC of the extracted CD
Track | Start | Length | Start sector | End sector
---------------------------------------------------------
1 | 0:00.00 | 6:25.40 | 0 | 28914
2 | 6:25.40 | 6:18.73 | 28915 | 57337
3 | 12:44.38 | 11:58.15 | 57338 | 111202
4 | 24:42.53 | 5:31.37 | 111203 | 136064
5 | 30:14.15 | 4:10.68 | 136065 | 154882
6 | 34:25.08 | 1:48.57 | 154883 | 163039
7 | 36:13.65 | 3:54.38 | 163040 | 180627
8 | 40:08.28 | 5:55.15 | 180628 | 207267
9 | 46:03.43 | 5:09.70 | 207268 | 230512
10 | 51:13.38 | 5:58.20 | 230513 | 257382
11 | 57:11.58 | 10:33.20 | 257383 | 304877
Track 1
Filename D:\zzz\01 - Leddis Presso.wav
Pre-gap length 0:00:02.00
Peak level 94.5 %
Extraction speed 5.0 X
Track quality 100.0 %
Test CRC A11EA361
Copy CRC A11EA361
Accurately ripped (confidence 1) [6BB9FC98] (AR v2)
Copy OK
Track 2
Filename D:\zzz\02 - Solomon.wav
Pre-gap length 0:00:12.00
Peak level 94.6 %
Extraction speed 5.7 X
Track quality 100.0 %
Test CRC CF7BA71D
Copy CRC CF7BA71D
Accurately ripped (confidence 1) [3D2E1A27] (AR v2)
Copy OK
Track 3
Filename D:\zzz\03 - Blues Out.wav
Pre-gap length 0:00:07.55
Peak level 94.4 %
Extraction speed 6.8 X
Track quality 100.0 %
Test CRC 94BB9B78
Copy CRC 94BB9B78
Accurately ripped (confidence 1) [0C3C0BA0] (AR v2)
Copy OK
Track 4
Filename D:\zzz\04 - Freestrum.wav
Pre-gap length 0:00:07.53
Peak level 94.2 %
Extraction speed 7.2 X
Track quality 100.0 %
Test CRC 1E553D4B
Copy CRC 1E553D4B
Accurately ripped (confidence 1) [10D19304] (AR v2)
Copy OK
Track 5
Filename D:\zzz\05 - Carol.wav
Pre-gap length 0:00:09.47
Peak level 84.0 %
Extraction speed 7.2 X
Track quality 100.0 %
Test CRC 06E63A7A
Copy CRC 06E63A7A
Accurately ripped (confidence 1) [34CC82E4] (AR v2)
Copy OK
Track 6
Filename D:\zzz\06 - All Out For The Get Go.wav
Pre-gap length 0:00:06.65
Peak level 84.2 %
Extraction speed 6.3 X
Track quality 100.0 %
Test CRC 19102913
Copy CRC 19102913
Accurately ripped (confidence 1) [B1EA9264] (AR v2)
Copy OK
Track 7
Filename D:\zzz\07 - Carving Still Shadows.wav
Pre-gap length 0:00:05.70
Peak level 84.2 %
Extraction speed 7.4 X
Track quality 100.0 %
Test CRC 94C0D90D
Copy CRC 94C0D90D
Accurately ripped (confidence 1) [AFA5A69B] (AR v2)
Copy OK
Track 8
Filename D:\zzz\08 - Rune Variations.wav
Pre-gap length 0:00:09.25
Peak level 94.3 %
Extraction speed 7.5 X
Track quality 99.9 %
Test CRC ABA56E3E
Copy CRC ABA56E3E
Accurately ripped (confidence 1) [1CDFDDD0] (AR v2)
Copy OK
Track 9
Filename D:\zzz\09 - Ossisil's Topic.wav
Pre-gap length 0:00:08.73
Peak level 86.0 %
Extraction speed 8.3 X
Track quality 100.0 %
Test CRC AA7132B7
Copy CRC AA7132B7
Accurately ripped (confidence 1) [A501E3F7] (AR v2)
Copy OK
Track 10
Filename D:\zzz\10 - New Directions.wav
Pre-gap length 0:00:13.00
Peak level 76.3 %
Extraction speed 8.7 X
Track quality 100.0 %
Test CRC 39BADEC7
Copy CRC 39BADEC7
Accurately ripped (confidence 1) [6849BDD1] (AR v2)
Copy OK
Track 11
Filename D:\zzz\11 - Extra Bar.wav
Pre-gap length 0:00:09.53
Peak level 94.6 %
Extraction speed 9.5 X
Track quality 100.0 %
Test CRC AF5D500A
Copy CRC AF5D500A
Accurately ripped (confidence 1) [3C7C3CC7] (AR v2)
Copy OK
All tracks accurately ripped
No errors occurred
End of status report
==== Log checksum D7C63E1DFB7024CC3A08177993A3D3E0B2392C04A34DE82E6F42A659E69A1DB4 ====
 
Содержание индексной карты (.CUE)
REM GENRE "Avant-Garde Jazz"
REM DATE 1992
REM DISCID 9D0FE10B
REM COMMENT "ExactAudioCopy v1.0b3"
PERFORMER "New Orchestra Workshop"
TITLE "Now You Hear It"
FILE "01 - Leddis Presso.wav" WAVE
TRACK 01 AUDIO
TITLE "Leddis Presso"
PERFORMER "Lunar Adventures"
INDEX 01 00:00:00
TRACK 02 AUDIO
TITLE "Solomon"
PERFORMER "Lunar Adventures"
INDEX 00 06:13:40
FILE "02 - Solomon.wav" WAVE
INDEX 01 00:00:00
TRACK 03 AUDIO
TITLE "Blues Out"
PERFORMER "Roger Baird & MuseArt"
INDEX 00 06:11:18
FILE "03 - Blues Out.wav" WAVE
INDEX 01 00:00:00
TRACK 04 AUDIO
TITLE "Freestrum"
PERFORMER "Bruce Freedman Trio"
INDEX 00 11:50:37
FILE "04 - Freestrum.wav" WAVE
INDEX 01 00:00:00
TRACK 05 AUDIO
TITLE "Carol"
PERFORMER "Bruce Freedman Trio"
INDEX 00 05:21:65
FILE "05 - Carol.wav" WAVE
INDEX 01 00:00:00
TRACK 06 AUDIO
TITLE "All Out For The Get Go"
PERFORMER "Paul Plimley / Clyde Reed Duo"
INDEX 00 04:04:03
FILE "06 - All Out For The Get Go.wav" WAVE
INDEX 01 00:00:00
TRACK 07 AUDIO
TITLE "Carving Still Shadows"
PERFORMER "Paul Plimley / Clyde Reed Duo"
INDEX 00 01:42:62
FILE "07 - Carving Still Shadows.wav" WAVE
INDEX 01 00:00:00
TRACK 08 AUDIO
TITLE "Rune Variations"
PERFORMER "Paul Plimley / Clyde Reed Duo"
INDEX 00 03:45:13
FILE "08 - Rune Variations.wav" WAVE
INDEX 01 00:00:00
TRACK 09 AUDIO
TITLE "Ossisil's Topic"
PERFORMER "Garbo's Hat"
INDEX 00 05:46:17
FILE "09 - Ossisil's Topic.wav" WAVE
INDEX 01 00:00:00
TRACK 10 AUDIO
TITLE "New Directions"
PERFORMER "Garbo's Hat"
INDEX 00 04:56:70
FILE "10 - New Directions.wav" WAVE
INDEX 01 00:00:00
TRACK 11 AUDIO
TITLE "Extra Bar"
PERFORMER "Graham Ord, Paul Blaney & Roger Baird"
INDEX 00 05:48:42
FILE "11 - Extra Bar.wav" WAVE
INDEX 01 00:00:00
 
Лог проверки качества
d:\>d:\aucdtect -d/-m0 d:\zzz\*.wav
auCDtect: CD records authenticity detector, version 0.8.2
Copyright (c) 2004 Oleg Berngardt. All rights reserved.
Copyright (c) 2004 Alexander Djourik. All rights reserved.
------------------------------------------------------------
Processing file: [01. Leddis Presso.wav]
------------------------------------------------------------
This track looks like CDDA with probability 100%
------------------------------------------------------------
Processing file: [02. Solomon.wav]
------------------------------------------------------------
This track looks like CDDA with probability 100%
------------------------------------------------------------
Processing file: [03. Blues Out.wav]
------------------------------------------------------------
This track looks like CDDA with probability 99%
------------------------------------------------------------
Processing file: [04. Freestrum.wav]
------------------------------------------------------------
This track looks like CDDA with probability 100%
------------------------------------------------------------
Processing file: [05. Carol.wav]
------------------------------------------------------------
This track looks like CDDA with probability 100%
------------------------------------------------------------
Processing file: [06. All Out For The Get Go.wav]
------------------------------------------------------------
This track looks like CDDA with probability 100%
------------------------------------------------------------
Processing file: [07. Carving Still Shadows.wav]
------------------------------------------------------------
This track looks like CDDA with probability 100%
------------------------------------------------------------
Processing file: [08. Rune Variations.wav]
------------------------------------------------------------
This track looks like CDDA with probability 100%
------------------------------------------------------------
Processing file: [09. Ossisil's Topic.wav]
------------------------------------------------------------
This track looks like CDDA with probability 43%
------------------------------------------------------------
Processing file: [10. New Directions.wav]
------------------------------------------------------------
Could not qualify the source of this track.
------------------------------------------------------------
Processing file: [11. Extra Bar.wav]
------------------------------------------------------------
This track looks like CDDA with probability 100%
------------------------------------------------------------
Final Conclusion:
------------------------------------------------------------
These tracks looks like CDDA with probability 100%
Доп. информация:
 
Album Info & AMG Review
Recorded Oct 20, 1991 at Howe Sound, Vancouver, B.C. (1,2)
Recorded Sep 3, 1991 at The Glass Slipper, Vancouver, B.C. (3)
Recorded Sep 1991 at Bullfrog Studio, Vancouver, B.C. (4,5)
Recorded Nov 12 & 13, 1991 at Waterloo Studios, Vancouver, B.C. (6,7,8)
Recorded May 9, 1991 live at The Music Gallery, Toronto, Ontario (9,10)
Recorded live to two-track digital PCM at The Western Front Lodge, Vancouver, B.C. (11)
Mastered at K-Disc by John Golden
Cover Art: "Painted Garden" by Gregg Simpson
Layout: Mel Kangleon
Although the title, New Orchestra Workshop makes it sound as if one large ensemble was featured throughout the CD, there are actually six adventurous and sometimes overlapping groups interpreting 11 selections from 1991. Lunar Adventures performs some free bop improvising on two numbers with a steady pulse and highly individual solos by tenor-saxophonist Coat Cooke and the rockish guitarist Ron Samworth; the contributions of bassist Clyde Reed and drummer Gregg Simpson should not be overlooked. Roger Baird & MuseArt matches the leader/drummer with the potent team of pianist Paul Plimley and bassist Lisle Ellis. Plimley (one of Canada's great jazz treasures) uses percussive chords on the floating "Blues Out" a bit like Cecil Taylor circa 1960 while Ellis and Baird follow his every move; this track is the standout of the release. Altoist Bruce Freedman (supported by bassist Clyde Reed and drummer Buff Allen) is lyrical on two fairly free ballads. Paul Plimley and Clyde Reed follow by engaging in three concise and explorative duets before one of Vancouver's most intriguing groups, Garbo's Hat (a trio with singer Kate Hammett-Vaughan, saxophonist Graham Ord and bassist Paul Blaney), features Hammett-Vaughan's warm voice on "Ossisil's Topic" and indulges in some odd sound explorations on "New Directions," This consistently interesting disc concludes with Ord, Blaney and drummer Baird (along with percussionist Jack Duncan and Joseph Dana on shakuhachi) improvising on the long and wandering "Extra Bar." All in all, Now You Hear It allows listeners to hear some of the more advanced musicians active in Vancouver in 1991.
 
Состав
Coat Cooke: tenor saxophone (1,2)
Ron Samworth: electric guitar (1,2)
Clyde Reed: acoustic bass (1,2,4,5,6,7,8)
Gregg Simpson: drums (1,2)
Paul Plimley: piano (3,6,7,8)
Lisle Ellis: acoustic bass (3)
Roger Baird: drums (3,11)
Bruce Freedman: alto saxophone (4,5)
Buff Allen: drums (4,5)
Kate Hammett-Vaughan: vocal (9,10)
Graham Ord: tenor saxophone (9,10), soprano saxophone (9,10,11), percussion (11)
Paul Blaney: acoustic bass (9,10,11)
Joseph Danza: shakuhachi (11)
Jack Duncan: percussion (11)
Any questions -> support@pro-jazz.com. По всем вопросам пишите -> support@pro-jazz.com
18:56
126
Нет комментариев. Ваш будет первым!