Вы используете незарегистрированную версию компонента "Вкладки"!

Поиск

(Free Jazz, Post-Bop, Nine Winds) The Kim Richmond & Clay Jenkins Ensemble (w/ Joey Sellers, Joe LaBarbera) - Range - 1995, FLAC (tracks+.cue), lossless

(Free Jazz, Post-Bop, Nine Winds) The Kim Richmond & Clay Jenkins Ensemble (w/ Joey Sellers, Joe LaBarbera) - Range - 1995, FLAC (tracks+.cue), lossless
Треклист:
The Kim Richmond & Clay Jenkins Ensemble / Range
Жанр: Free Jazz, Post-Bop, Nine Winds
Страна-производитель диска: US
Год издания: 1995
Издатель (лейбл): 9 Winds
Номер по каталогу: NWCD 0172
Страна: US
Аудиокодек: FLAC (*.flac)
Тип рипа: tracks+.cue
Битрейт аудио: lossless
Продолжительность: 69:51
Источник (релизер): свой фирменный диск
Наличие сканов в содержимом раздачи:
Треклист:
1. Data Bank 7:08
2. Range 10:26
3. Rails 7:41
4. 900 Heartbeats 8:19
5. You Don't Know What Love Is 10:36
6. 47 Ways 8:51
7. Corrective Measures 10:03
8. Soon 6:21
 
Лог создания рипа
Exact Audio Copy V1.0 beta 3 from 29. August 2011
EAC extraction logfile from 8. October 2013, 1:00
Kim Richmond / Clay Jenkins Ensemble / Range
Used drive : PIONEER DVD-RW DVR-115D Adapter: 0 ID: 0
Read mode : Secure
Utilize accurate stream : Yes
Defeat audio cache : Yes
Make use of C2 pointers : No
Read offset correction : 48
Overread into Lead-In and Lead-Out : No
Fill up missing offset samples with silence : Yes
Delete leading and trailing silent blocks : No
Null samples used in CRC calculations : Yes
Used interface : Installed external ASPI interface
Gap handling : Appended to previous track
Used output format : User Defined Encoder
Selected bitrate : 896 kBit/s
Quality : High
Add ID3 tag : No
Command line compressor : C:\Program Files\Exact Audio Copy\FLAC\FLAC.EXE
Additional command line options : -6 -V -T "ARTIST=%artist%" -T "TITLE=%title%" -T "ALBUM=%albumtitle%" -T "DATE=%year%" -T "TRACKNUMBER=%tracknr%" -T "GENRE=%genre%" -T "COMMENT=%comment%" -T "BAND=%albuminterpret%" -T "COMPOSER=%composer%" %haslyrics%--tag-from-file=LYRICS="%lyricsfile%"%haslyrics% -T "DISCNUMBER=%cdnumber%" -T "TOTALDISCS=%totalcds%" -T "TOTALTRACKS=%numtracks%" %hascover%--picture="%coverfile%"%hascover% %source% -o %dest%
TOC of the extracted CD
Track | Start | Length | Start sector | End sector
---------------------------------------------------------
1 | 0:00.40 | 7:12.22 | 40 | 32461
2 | 7:12.62 | 10:30.50 | 32462 | 79761
3 | 17:43.37 | 7:43.30 | 79762 | 114516
4 | 25:26.67 | 8:21.68 | 114517 | 152159
5 | 33:48.60 | 10:40.25 | 152160 | 200184
6 | 44:29.10 | 8:55.20 | 200185 | 240329
7 | 53:24.30 | 10:05.35 | 240330 | 285739
8 | 63:29.65 | 6:21.55 | 285740 | 314369
Track 1
Filename D:\zzz\01 - Data Bank.wav
Pre-gap length 0:00:02.40
Peak level 99.0 %
Extraction speed 5.1 X
Track quality 100.0 %
Test CRC E4B52341
Copy CRC E4B52341
Accurately ripped (confidence 2) [B52C45C0] (AR v1)
Copy OK
Track 2
Filename D:\zzz\02 - Range.wav
Pre-gap length 0:00:03.22
Peak level 99.0 %
Extraction speed 6.2 X
Track quality 100.0 %
Test CRC 4FC15AE6
Copy CRC 4FC15AE6
Accurately ripped (confidence 2) [A34A794D] (AR v1)
Copy OK
Track 3
Filename D:\zzz\03 - Rails.wav
Pre-gap length 0:00:03.39
Peak level 99.0 %
Extraction speed 6.9 X
Track quality 100.0 %
Test CRC 192FE9CC
Copy CRC 192FE9CC
Accurately ripped (confidence 2) [84356B4E] (AR v1)
Copy OK
Track 4
Filename D:\zzz\04 - 900 Heartbeats.wav
Pre-gap length 0:00:01.59
Peak level 99.0 %
Extraction speed 7.5 X
Track quality 100.0 %
Test CRC 6279DAFD
Copy CRC 6279DAFD
Accurately ripped (confidence 2) [AD9AAFD8] (AR v1)
Copy OK
Track 5
Filename D:\zzz\05 - You Don't Know What Love Is.wav
Pre-gap length 0:00:02.20
Peak level 99.0 %
Extraction speed 8.2 X
Track quality 100.0 %
Test CRC 92A62102
Copy CRC 92A62102
Accurately ripped (confidence 2) [205EC3C7] (AR v1)
Copy OK
Track 6
Filename D:\zzz\06 - 47 Ways.wav
Pre-gap length 0:00:02.67
Peak level 99.0 %
Extraction speed 8.7 X
Track quality 100.0 %
Test CRC 8A75F8A4
Copy CRC 8A75F8A4
Accurately ripped (confidence 2) [0957485E] (AR v1)
Copy OK
Track 7
Filename D:\zzz\07 - Corrective Measures.wav
Pre-gap length 0:00:02.62
Peak level 99.0 %
Extraction speed 9.4 X
Track quality 100.0 %
Test CRC DC391A14
Copy CRC DC391A14
Accurately ripped (confidence 2) [8C9E8BFA] (AR v1)
Copy OK
Track 8
Filename D:\zzz\08 - Soon.wav
Pre-gap length 0:00:01.52
Peak level 99.0 %
Extraction speed 9.3 X
Track quality 100.0 %
Test CRC 3F5753CC
Copy CRC 3F5753CC
Accurately ripped (confidence 2) [FDE65212] (AR v1)
Copy OK
All tracks accurately ripped
No errors occurred
End of status report
==== Log checksum 43F2731A7CDB9D9EDEBD2362F422819817284676E6DFFCEDD7D2ABB0662F128E ====
 
Содержание индексной карты (.CUE)
REM GENRE Jazz
REM DATE 1995
REM DISCID 56105F08
REM COMMENT "ExactAudioCopy v1.0b3"
PERFORMER "Kim Richmond / Clay Jenkins Ensemble"
TITLE "Range"
FILE "01 - Data Bank.wav" WAVE
TRACK 01 AUDIO
TITLE "Data Bank"
PERFORMER "Kim Richmond / Clay Jenkins Ensemble"
PREGAP 00:00:40
INDEX 01 00:00:00
TRACK 02 AUDIO
TITLE "Range"
PERFORMER "Kim Richmond / Clay Jenkins Ensemble"
INDEX 00 07:09:00
FILE "02 - Range.wav" WAVE
INDEX 01 00:00:00
TRACK 03 AUDIO
TITLE "Rails"
PERFORMER "Kim Richmond / Clay Jenkins Ensemble"
INDEX 00 10:27:11
FILE "03 - Rails.wav" WAVE
INDEX 01 00:00:00
TRACK 04 AUDIO
TITLE "900 Heartbeats"
PERFORMER "Kim Richmond / Clay Jenkins Ensemble"
INDEX 00 07:41:46
FILE "04 - 900 Heartbeats.wav" WAVE
INDEX 01 00:00:00
TRACK 05 AUDIO
TITLE "You Don't Know What Love Is"
PERFORMER "Kim Richmond / Clay Jenkins Ensemble"
INDEX 00 08:19:48
FILE "05 - You Don't Know What Love Is.wav" WAVE
INDEX 01 00:00:00
TRACK 06 AUDIO
TITLE "47 Ways"
PERFORMER "Kim Richmond / Clay Jenkins Ensemble"
INDEX 00 10:37:33
FILE "06 - 47 Ways.wav" WAVE
INDEX 01 00:00:00
TRACK 07 AUDIO
TITLE "Corrective Measures"
PERFORMER "Kim Richmond / Clay Jenkins Ensemble"
INDEX 00 08:52:33
FILE "07 - Corrective Measures.wav" WAVE
INDEX 01 00:00:00
TRACK 08 AUDIO
TITLE "Soon"
PERFORMER "Kim Richmond / Clay Jenkins Ensemble"
INDEX 00 10:03:58
FILE "08 - Soon.wav" WAVE
INDEX 01 00:00:00
 
Лог проверки качества
d:\>d:\aucdtect -d/-m0 d:\zzz\*.wav
auCDtect: CD records authenticity detector, version 0.8.2
Copyright (c) 2004 Oleg Berngardt. All rights reserved.
Copyright (c) 2004 Alexander Djourik. All rights reserved.
------------------------------------------------------------
Processing file: [01. Data Bank.wav]
------------------------------------------------------------
This track looks like CDDA with probability 100%
------------------------------------------------------------
Processing file: [02. Range.wav]
------------------------------------------------------------
This track looks like CDDA with probability 100%
------------------------------------------------------------
Processing file: [03. Rails.wav]
------------------------------------------------------------
This track looks like CDDA with probability 99%
------------------------------------------------------------
Processing file: [04. 900 Heartbeats.wav]
------------------------------------------------------------
This track looks like CDDA with probability 99%
------------------------------------------------------------
Processing file: [05. You Don't Know What Love Is.wav]
------------------------------------------------------------
This track looks like CDDA with probability 100%
------------------------------------------------------------
Processing file: [06. 47 Ways.wav]
------------------------------------------------------------
This track looks like CDDA with probability 100%
------------------------------------------------------------
Processing file: [07. Corrective Measures.wav]
------------------------------------------------------------
This track looks like CDDA with probability 100%
------------------------------------------------------------
Processing file: [08. Soon.wav]
------------------------------------------------------------
This track looks like CDDA with probability 100%
------------------------------------------------------------
Final Conclusion:
------------------------------------------------------------
These tracks looks like CDDA with probability 100%
Доп. информация:
 
Album Info
(Richmond) - 1,2,3,7
(Jenkins) - 4,6
(Raye/Depaul) - 5
(Gershwin) - 8
Produced by Kim Richmond & Clay Jenkins
Recorded September 16 & 23, 1994 at Studio 47, Hollywood, CA
Engineer: Wayne Peet
Mixed at Newzone Studio, LA, CA February 17,18,23, 1995 by Wayne Peet
Mastered by John Golden
Cover art by Chris Zambon
Design by St. Stephen
Clay Jenkins plays the "New French Besson" trumpet by Boosey & Hawkes.
Kim Richmond plays Selmer saxophones.
 
Состав
Clay Jenkins: trumpet
Kim Richmond: alto saxophone
Joey Sellers: trombone
Dave Scott: piano
Trey Henry: bass
Joe LaBarbera: drums
Any questions -> support@pro-jazz.com. По всем вопросам пишите -> support@pro-jazz.com
18:57
144
Нет комментариев. Ваш будет первым!