Вы используете незарегистрированную версию компонента "Вкладки"!

Поиск

(Free Jazz, Avant-Garde Jazz, Nine Winds) Jeanette Wrate - Somewhere Between Here And There - 1996, FLAC (tracks+.cue), lossless

(Free Jazz, Avant-Garde Jazz, Nine Winds) Jeanette Wrate - Somewhere Between Here And There - 1996, FLAC (tracks+.cue), lossless
Треклист:
Jeanette Wrate / Somewhere Between Here And There
Жанр: Free Jazz, Avant-Garde Jazz, Nine Winds
Страна-производитель диска: US
Год издания: 1996
Издатель (лейбл): 9 Winds
Номер по каталогу: NWCD0179
Страна: US
Аудиокодек: FLAC (*.flac)
Тип рипа: tracks+.cue
Битрейт аудио: lossless
Продолжительность: 61:57
Источник (релизер): свой фирменный диск
Наличие сканов в содержимом раздачи:
Треклист:
1. Three Before Four 7:55
2. a. The Dance That Broke 2:29
3. b. The Dance That Broke 10:08
4. Ed Blackwell: A Humble Homage 8:03
5. a. The Gatekeeper's Persuasion 1:40
6. b. The Gatekeeper's Persuasion 10:29
7. a. She Sleeps With Her Hat On 1:44
8. b. She Sleeps With Her Hat On 9:52
9. Boo Boo's Birthday 6:08
10. Shepherd's Lullaby 3:19
 
Лог создания рипа
Exact Audio Copy V1.0 beta 3 from 29. August 2011
EAC extraction logfile from 8. October 2013, 22:54
Jeanette Wrate / Somewhere Between Here And There
Used drive : PIONEER DVD-RW DVR-115D Adapter: 0 ID: 0
Read mode : Secure
Utilize accurate stream : Yes
Defeat audio cache : Yes
Make use of C2 pointers : No
Read offset correction : 48
Overread into Lead-In and Lead-Out : No
Fill up missing offset samples with silence : Yes
Delete leading and trailing silent blocks : No
Null samples used in CRC calculations : Yes
Used interface : Installed external ASPI interface
Gap handling : Appended to previous track
Used output format : User Defined Encoder
Selected bitrate : 896 kBit/s
Quality : High
Add ID3 tag : No
Command line compressor : C:\Program Files\Exact Audio Copy\FLAC\FLAC.EXE
Additional command line options : -6 -V -T "ARTIST=%artist%" -T "TITLE=%title%" -T "ALBUM=%albumtitle%" -T "DATE=%year%" -T "TRACKNUMBER=%tracknr%" -T "GENRE=%genre%" -T "COMMENT=%comment%" -T "BAND=%albuminterpret%" -T "COMPOSER=%composer%" %haslyrics%--tag-from-file=LYRICS="%lyricsfile%"%haslyrics% -T "DISCNUMBER=%cdnumber%" -T "TOTALDISCS=%totalcds%" -T "TOTALTRACKS=%numtracks%" %hascover%--picture="%coverfile%"%hascover% %source% -o %dest%
TOC of the extracted CD
Track | Start | Length | Start sector | End sector
---------------------------------------------------------
1 | 0:00.57 | 7:57.35 | 57 | 35866
2 | 7:58.17 | 2:29.15 | 35867 | 47056
3 | 10:27.32 | 10:08.45 | 47057 | 92701
4 | 20:36.02 | 8:05.50 | 92702 | 129126
5 | 28:41.52 | 1:40.20 | 129127 | 136646
6 | 30:21.72 | 10:29.05 | 136647 | 183826
7 | 40:51.02 | 1:44.03 | 183827 | 191629
8 | 42:35.05 | 9:53.57 | 191630 | 236161
9 | 52:28.62 | 6:09.03 | 236162 | 263839
10 | 58:37.65 | 3:20.20 | 263840 | 278859
Track 1
Filename D:\zzz\01 - Three Before Four.wav
Pre-gap length 0:00:02.57
Peak level 99.2 %
Extraction speed 5.1 X
Track quality 100.0 %
Test CRC DA638B87
Copy CRC DA638B87
Track not present in AccurateRip database
Copy OK
Track 2
Filename D:\zzz\02 - a. The Dance That Broke.wav
Pre-gap length 0:00:01.32
Peak level 59.7 %
Extraction speed 4.9 X
Track quality 100.0 %
Test CRC 3D5FF4E0
Copy CRC 3D5FF4E0
Track not present in AccurateRip database
Copy OK
Track 3
Filename D:\zzz\03 - b. The Dance That Broke.wav
Peak level 100.0 %
Extraction speed 6.3 X
Track quality 100.0 %
Test CRC 05C143A5
Copy CRC 05C143A5
Track not present in AccurateRip database
Copy OK
Track 4
Filename D:\zzz\04 - Ed Blackwell- A Humble Homage.wav
Peak level 100.0 %
Extraction speed 6.6 X
Track quality 99.9 %
Test CRC CDFA98A9
Copy CRC CDFA98A9
Track not present in AccurateRip database
Copy OK
Track 5
Filename D:\zzz\05 - a. The Gatekeeper's Persuasion.wav
Pre-gap length 0:00:01.19
Peak level 99.0 %
Extraction speed 4.6 X
Track quality 99.8 %
Test CRC BFBF8B14
Copy CRC BFBF8B14
Track not present in AccurateRip database
Copy OK
Track 6
Filename D:\zzz\06 - b. The Gatekeeper's Persuasion.wav
Peak level 100.0 %
Extraction speed 7.9 X
Track quality 100.0 %
Test CRC B68BA7B8
Copy CRC B68BA7B8
Track not present in AccurateRip database
Copy OK
Track 7
Filename D:\zzz\07 - a. She Sleeps With Her Hat On.wav
Peak level 62.5 %
Extraction speed 6.4 X
Track quality 100.0 %
Test CRC EF8C3166
Copy CRC EF8C3166
Track not present in AccurateRip database
Copy OK
Track 8
Filename D:\zzz\08 - b. She Sleeps With Her Hat On.wav
Peak level 100.0 %
Extraction speed 8.5 X
Track quality 100.0 %
Test CRC DF3DEFF7
Copy CRC DF3DEFF7
Track not present in AccurateRip database
Copy OK
Track 9
Filename D:\zzz\09 - Boo Boo's Birthday.wav
Pre-gap length 0:00:01.27
Peak level 100.0 %
Extraction speed 8.7 X
Track quality 100.0 %
Test CRC 39E66BDF
Copy CRC 39E66BDF
Track not present in AccurateRip database
Copy OK
Track 10
Filename D:\zzz\10 - Shepherd's Lullaby.wav
Pre-gap length 0:00:00.22
Peak level 99.0 %
Extraction speed 8.3 X
Track quality 100.0 %
Test CRC D97834A2
Copy CRC D97834A2
Track not present in AccurateRip database
Copy OK
None of the tracks are present in the AccurateRip database
No errors occurred
End of status report
==== Log checksum CFFC5E4E5A7DF680CBA6E7CAF32366C68C2CA7A7DBAB8E73DD4365CC2C4B3EE7 ====
 
Содержание индексной карты (.CUE)
REM GENRE Jazz
REM DATE 1996
REM DISCID 840E860A
REM COMMENT "ExactAudioCopy v1.0b3"
PERFORMER "Jeanette Wrate"
TITLE "Somewhere Between Here And There"
FILE "01 - Three Before Four.wav" WAVE
TRACK 01 AUDIO
TITLE "Three Before Four"
PERFORMER "Jeanette Wrate"
PREGAP 00:00:57
INDEX 01 00:00:00
TRACK 02 AUDIO
TITLE "a. The Dance That Broke"
PERFORMER "Jeanette Wrate"
INDEX 00 07:56:03
FILE "02 - a. The Dance That Broke.wav" WAVE
INDEX 01 00:00:00
FILE "03 - b. The Dance That Broke.wav" WAVE
TRACK 03 AUDIO
TITLE "b. The Dance That Broke"
PERFORMER "Jeanette Wrate"
INDEX 01 00:00:00
FILE "04 - Ed Blackwell- A Humble Homage.wav" WAVE
TRACK 04 AUDIO
TITLE "Ed Blackwell: A Humble Homage"
PERFORMER "Jeanette Wrate"
INDEX 01 00:00:00
TRACK 05 AUDIO
TITLE "a. The Gatekeeper's Persuasion"
PERFORMER "Jeanette Wrate"
INDEX 00 08:04:31
FILE "05 - a. The Gatekeeper's Persuasion.wav" WAVE
INDEX 01 00:00:00
FILE "06 - b. The Gatekeeper's Persuasion.wav" WAVE
TRACK 06 AUDIO
TITLE "b. The Gatekeeper's Persuasion"
PERFORMER "Jeanette Wrate"
INDEX 01 00:00:00
FILE "07 - a. She Sleeps With Her Hat On.wav" WAVE
TRACK 07 AUDIO
TITLE "a. She Sleeps With Her Hat On"
PERFORMER "Jeanette Wrate"
INDEX 01 00:00:00
FILE "08 - b. She Sleeps With Her Hat On.wav" WAVE
TRACK 08 AUDIO
TITLE "b. She Sleeps With Her Hat On"
PERFORMER "Jeanette Wrate"
INDEX 01 00:00:00
TRACK 09 AUDIO
TITLE "Boo Boo's Birthday"
PERFORMER "Jeanette Wrate"
INDEX 00 09:52:30
FILE "09 - Boo Boo's Birthday.wav" WAVE
INDEX 01 00:00:00
TRACK 10 AUDIO
TITLE "Shepherd's Lullaby"
PERFORMER "Jeanette Wrate"
INDEX 00 06:08:56
FILE "10 - Shepherd's Lullaby.wav" WAVE
INDEX 01 00:00:00
 
Лог проверки качества
d:\>d:\aucdtect -d/-m0 d:\zzz\*.wav
auCDtect: CD records authenticity detector, version 0.8.2
Copyright (c) 2004 Oleg Berngardt. All rights reserved.
Copyright (c) 2004 Alexander Djourik. All rights reserved.
------------------------------------------------------------
Processing file: [01. Three Before Four.wav]
------------------------------------------------------------
This track looks like CDDA with probability 99%
------------------------------------------------------------
Processing file: [02. a. The Dance That Broke.wav]
------------------------------------------------------------
This track looks like CDDA with probability 100%
------------------------------------------------------------
Processing file: [03. b. The Dance That Broke.wav]
------------------------------------------------------------
This track looks like CDDA with probability 100%
------------------------------------------------------------
Processing file: [04. Ed Blackwell- A Humble Homage.wav]
------------------------------------------------------------
This track looks like CDDA with probability 100%
------------------------------------------------------------
Processing file: [05. a. The Gatekeeper's Persuasion.wav]
------------------------------------------------------------
This track looks like CDDA with probability 100%
------------------------------------------------------------
Processing file: [06. b. The Gatekeeper's Persuasion.wav]
------------------------------------------------------------
This track looks like CDDA with probability 100%
------------------------------------------------------------
Processing file: [07. a. She Sleeps With Her Hat On.wav]
------------------------------------------------------------
This track looks like CDDA with probability 100%
------------------------------------------------------------
Processing file: [08. b. She Sleeps With Her Hat On.wav]
------------------------------------------------------------
This track looks like CDDA with probability 100%
------------------------------------------------------------
Processing file: [09. Boo Boo's Birthday.wav]
------------------------------------------------------------
This track looks like CDDA with probability 100%
------------------------------------------------------------
Processing file: [10. Shepherd's Lullaby.wav]
------------------------------------------------------------
This track looks like CDDA with probability 100%
------------------------------------------------------------
Final Conclusion:
------------------------------------------------------------
These tracks looks like CDDA with probability 100%
Доп. информация:
 
Album Info
All compositions and text by Jeanette Wrate except 9. which was composed by the great Thelonious Monk and the text on 5. which is from the book "The Way Of Life According To Lao Tzu".
Executive producer: Lisa Schwab
Produced by: David Crigger, Vinny Golia & Chris Garcia
Engineered by David Crigger
Design by Vinny Golia & Jeff Atherton
Photography by Warren Berman
Recorded October 29, 1995 at Crigger Recording, North Hollywood
Mixed Nov. 21 & 28, 1995 by David Crigger, Jeanette Wrate and Chris Garcia
Mastered by John Golden
I would like to dedicate this CD in all humility to my beloved Guru, Sant Thakar Singh Ji, who, for the last four years has been meditating continuously in the Himalayas, out of love and compassion for all living creatures.
 
Состав
Bill Plake: tenor saxophone
Craig Ochikubo: keyboards
Anders Swanson: bass
Jeanette Wrate: drums, various toys, melodica and David's bar stool
Spoken word: Mary Duvall & Jeanette Wrate
Vocals on 2.: Val Guin & Jeanette Wrate
Any questions -> support@pro-jazz.com. По всем вопросам пишите -> support@pro-jazz.com
18:58
141
Нет комментариев. Ваш будет первым!