Вы используете незарегистрированную версию компонента "Вкладки"!

Поиск

(Avant-Garde, Fresh Sound New Talent) Michael Bates & Samuel Blaser Quintet (Michael Blake, Russ Lossing, Jeff Davis) - One from None - 2012, FLAC (tracks+.cue), lossless

(Avant-Garde, Fresh Sound New Talent) Michael Bates & Samuel Blaser Quintet (Michael Blake, Russ Lossing, Jeff Davis) - One from None - 2012, FLAC (tracks+.cue), lossless
Треклист:
Michael Bates & Samuel Blaser Quintet / One from None
Жанр: Avant-Garde, Fresh Sound New Talent
Страна-производитель диска: Spain
Год издания: 2012
Издатель (лейбл): Fresh Sound New Talent
Номер по каталогу: FSNT 414
Аудиокодек: FLAC (*.flac)
Тип рипа: tracks+.cue
Битрейт аудио: lossless
Продолжительность: 58:29
Источник (релизер): Max Monteiro
Наличие сканов в содержимом раздачи: да
Треклист:
1. One from None 9:11
2. Van Gogh 7:14
3. Dogfish 5:16
4. Recurring Dream 6:42
5. Balance 6:01
6. Uncertain Salvo 8:08
7. Rising Moon 6:09
8. It Began to Get Dark 9:47
Tracks 1, 2, 3, 5, 6 composed by Michael Bates.
Tracks 4, 7, 8 composed by Samuel Blaser.
Recorded on December 11, 2011 at Tedesco Studios, Paramus, New Jersey.
Michael Blake – Saxophone
Samuel Blaser – Trombone
Russ Lossing – Piano, Rhodes
Michael Bates – Double Bass
Jeff Davis – Drums
 
Лог создания рипа
Exact Audio Copy V1.0 beta 3 from 29. August 2011
EAC extraction logfile from 12. October 2013, 12:13
Michael Bates & Samuel Blaser Quintet / One from None
Used drive : SlimtypeeNAU508 5 Adapter: 1 ID: 0
Read mode : Secure
Utilize accurate stream : Yes
Defeat audio cache : Yes
Make use of C2 pointers : No
Read offset correction : 6
Overread into Lead-In and Lead-Out : No
Fill up missing offset samples with silence : Yes
Delete leading and trailing silent blocks : No
Null samples used in CRC calculations : Yes
Used interface : Native Win32 interface for Win NT & 2000
Gap handling : Appended to previous track
Used output format : User Defined Encoder
Selected bitrate : 768 kBit/s
Quality : High
Add ID3 tag : No
Command line compressor : C:\Program Files (x86)\Exact Audio Copy\Flac\flac.exe
Additional command line options : -8 -V -T "ARTIST=%artist%" -T "TITLE=%title%" -T "ALBUM=%albumtitle%" -T "DATE=%year%" -T "TRACKNUMBER=%tracknr%" -T "GENRE=%genre%" -T "PERFORMER=%albuminterpret%" -T "COMPOSER=%composer%" %haslyrics%--tag-from-file=LYRICS="%lyricsfile%"%haslyrics% -T "ALBUMARTIST=%albumartist%" -T "DISCNUMBER=%cdnumber%" -T "TOTALDISCS=%totalcds%" -T "TOTALTRACKS=%numtracks%" -T "COMMENT=%comment%" %source% -o %dest%
TOC of the extracted CD
Track | Start | Length | Start sector | End sector
---------------------------------------------------------
1 | 0:00.00 | 9:10.46 | 0 | 41295
2 | 9:10.46 | 7:14.20 | 41296 | 73865
3 | 16:24.66 | 5:16.35 | 73866 | 97600
4 | 21:41.26 | 6:42.16 | 97601 | 127766
5 | 28:23.42 | 6:01.29 | 127767 | 154870
6 | 34:24.71 | 8:08.06 | 154871 | 191476
7 | 42:33.02 | 6:09.09 | 191477 | 219160
8 | 48:42.11 | 9:47.06 | 219161 | 263191
Track 1
Filename C:\EAC rips\01 - One from None.wav
Pre-gap length 0:00:02.00
Peak level 97.8 %
Extraction speed 2.6 X
Track quality 100.0 %
Test CRC EF5E413C
Copy CRC EF5E413C
Track not present in AccurateRip database
Copy OK
Track 2
Filename C:\EAC rips\02 - Van Gogh.wav
Pre-gap length 0:00:01.57
Peak level 98.0 %
Extraction speed 2.7 X
Track quality 99.9 %
Test CRC 4B817362
Copy CRC 4B817362
Track not present in AccurateRip database
Copy OK
Track 3
Filename C:\EAC rips\03 - Dogfish.wav
Pre-gap length 0:00:00.51
Peak level 98.0 %
Extraction speed 3.2 X
Track quality 100.0 %
Test CRC 7F7F1092
Copy CRC 7F7F1092
Track not present in AccurateRip database
Copy OK
Track 4
Filename C:\EAC rips\04 - Recurring Dream.wav
Pre-gap length 0:00:01.15
Peak level 98.0 %
Extraction speed 3.5 X
Track quality 100.0 %
Test CRC A7C02608
Copy CRC A7C02608
Track not present in AccurateRip database
Copy OK
Track 5
Filename C:\EAC rips\05 - Balance.wav
Pre-gap length 0:00:01.48
Peak level 98.0 %
Extraction speed 3.7 X
Track quality 100.0 %
Test CRC 7FF4112A
Copy CRC 7FF4112A
Track not present in AccurateRip database
Copy OK
Track 6
Filename C:\EAC rips\06 - Uncertain Salvo.wav
Pre-gap length 0:00:01.18
Peak level 98.0 %
Extraction speed 4.0 X
Track quality 100.0 %
Test CRC D89F64A3
Copy CRC D89F64A3
Track not present in AccurateRip database
Copy OK
Track 7
Filename C:\EAC rips\07 - Rising Moon.wav
Pre-gap length 0:00:01.22
Peak level 98.0 %
Extraction speed 4.2 X
Track quality 100.0 %
Test CRC 2C223B43
Copy CRC 2C223B43
Track not present in AccurateRip database
Copy OK
Track 8
Filename C:\EAC rips\08 - It Began to Get Dark.wav
Pre-gap length 0:00:00.70
Peak level 98.0 %
Extraction speed 4.6 X
Track quality 100.0 %
Test CRC 87CFE06E
Copy CRC 87CFE06E
Track not present in AccurateRip database
Copy OK
None of the tracks are present in the AccurateRip database
No errors occurred
End of status report
---- CUETools DB Plugin V2.1.4
[CTDB TOCID: pMEReKQxoDaHw.HePYlbNXSjfo0-] found
Submit result: pMEReKQxoDaHw.HePYlbNXSjfo0- has been confirmed
Track | CTDB Status
1 | (1/1) Accurately ripped
2 | (1/1) Accurately ripped
3 | (1/1) Accurately ripped
4 | (1/1) Accurately ripped
5 | (1/1) Accurately ripped
6 | (1/1) Accurately ripped
7 | (1/1) Accurately ripped
8 | (1/1) Accurately ripped
==== Log checksum 501DBAAC0624D978EC79ADBAED9B5231E03269134CE65B294EFE143A48BE3432 ====
 
Содержание индексной карты (.CUE)
REM GENRE Jazz
REM DATE 2012
REM DISCID 690DB508
REM COMMENT "ExactAudioCopy v1.0b3"
PERFORMER "Michael Bates & Samuel Blaser Quintet"
TITLE "One from None"
FILE "01 - One from None.wav" WAVE
TRACK 01 AUDIO
TITLE "One from None"
PERFORMER "Michael Bates & Samuel Blaser Quintet"
ISRC ES7711241401
INDEX 01 00:00:00
TRACK 02 AUDIO
TITLE "Van Gogh"
PERFORMER "Michael Bates & Samuel Blaser Quintet"
ISRC ES7711241402
INDEX 00 09:08:64
FILE "02 - Van Gogh.wav" WAVE
INDEX 01 00:00:00
TRACK 03 AUDIO
TITLE "Dogfish"
PERFORMER "Michael Bates & Samuel Blaser Quintet"
ISRC ES7711241403
INDEX 00 07:13:44
FILE "03 - Dogfish.wav" WAVE
INDEX 01 00:00:00
TRACK 04 AUDIO
TITLE "Recurring Dream"
PERFORMER "Michael Bates & Samuel Blaser Quintet"
ISRC ES7711241404
INDEX 00 05:15:20
FILE "04 - Recurring Dream.wav" WAVE
INDEX 01 00:00:00
TRACK 05 AUDIO
TITLE "Balance"
PERFORMER "Michael Bates & Samuel Blaser Quintet"
ISRC ES7711241405
INDEX 00 06:40:43
FILE "05 - Balance.wav" WAVE
INDEX 01 00:00:00
TRACK 06 AUDIO
TITLE "Uncertain Salvo"
PERFORMER "Michael Bates & Samuel Blaser Quintet"
ISRC ES7711241406
INDEX 00 06:00:11
FILE "06 - Uncertain Salvo.wav" WAVE
INDEX 01 00:00:00
TRACK 07 AUDIO
TITLE "Rising Moon"
PERFORMER "Michael Bates & Samuel Blaser Quintet"
ISRC ES7711241407
INDEX 00 08:06:59
FILE "07 - Rising Moon.wav" WAVE
INDEX 01 00:00:00
TRACK 08 AUDIO
TITLE "It Began to Get Dark"
PERFORMER "Michael Bates & Samuel Blaser Quintet"
ISRC ES7711241408
INDEX 00 06:08:14
FILE "08 - It Began to Get Dark.wav" WAVE
INDEX 01 00:00:00
Any questions -> support@pro-jazz.com. По всем вопросам пишите -> support@pro-jazz.com
18:58
168
Нет комментариев. Ваш будет первым!