Вы используете незарегистрированную версию компонента "Вкладки"!

Поиск

(Free Jazz, Avant-Garde Jazz) Christian Asplund - The Anatomy Series - 2009, FLAC (tracks+.cue), lossless

(Free Jazz, Avant-Garde Jazz) Christian Asplund - The Anatomy Series - 2009, FLAC (tracks+.cue), lossless
Треклист:
Christian Asplund / The Anatomy Series
Жанр: Free Jazz, Avant-Garde Jazz
Страна-производитель диска: US
Год издания: 2009
Издатель (лейбл): Comprovise Records
Номер по каталогу: 200901
Страна: US
Аудиокодек: FLAC (*.flac)
Тип рипа: tracks+.cue
Битрейт аудио: lossless
Продолжительность: 55:14
Источник (релизер): свой фирменный диск
Наличие сканов в содержимом раздачи:
Треклист:
1 Nose 0 0:12
2 Nose 1 0:33
3 Nose 2 0:31
4 Nose 3 0:42
5 Nose 4 1:04
6 Nose 5 2:05
7 Ear 0 2:03
8 Ear 1 1:22
9 Ear 2 1:19
10 Ear 3 0:58
11 Ear 4 1:29
12 Ear 5 2:42
13 Hair 0 1:10
14 Hair 1 1:20
15 Hair 2 2:10
16 Hair 3 2:36
17 Hair 4 3:40
18 Forehead 0 2:09
19 Forehead 1 2:55
20 Forehead 2 1:37
21 Forehead 3 3:02
22 Forehead 4 2:27
23 Forehead 5 1:26
24 Chin 0 0:52
25 Chin 2 0:29
26 Chin 3 1:38
27 Chin 4 0:45
28 Chin 5 1:07
29 Mouth 0 0:44
30 Mouth 1 0:54
31 Mouth 2 0:58
32 Mouth 4 4:50
33 Mouth 5 1:14
34 Neck 0 0:44
35 Neck 1 1:31
 
Лог создания рипа
Exact Audio Copy V1.0 beta 3 from 29. August 2011
EAC extraction logfile from 11. October 2013, 22:08
Christian Asplund / The Anatomy Series
Used drive : PIONEER DVD-RW DVR-115D Adapter: 0 ID: 0
Read mode : Secure
Utilize accurate stream : Yes
Defeat audio cache : Yes
Make use of C2 pointers : No
Read offset correction : 48
Overread into Lead-In and Lead-Out : No
Fill up missing offset samples with silence : Yes
Delete leading and trailing silent blocks : No
Null samples used in CRC calculations : Yes
Used interface : Installed external ASPI interface
Gap handling : Appended to previous track
Used output format : User Defined Encoder
Selected bitrate : 896 kBit/s
Quality : High
Add ID3 tag : No
Command line compressor : C:\Program Files\Exact Audio Copy\FLAC\FLAC.EXE
Additional command line options : -6 -V -T "ARTIST=%artist%" -T "TITLE=%title%" -T "ALBUM=%albumtitle%" -T "DATE=%year%" -T "TRACKNUMBER=%tracknr%" -T "GENRE=%genre%" -T "COMMENT=%comment%" -T "BAND=%albuminterpret%" -T "COMPOSER=%composer%" %haslyrics%--tag-from-file=LYRICS="%lyricsfile%"%haslyrics% -T "DISCNUMBER=%cdnumber%" -T "TOTALDISCS=%totalcds%" -T "TOTALTRACKS=%numtracks%" %hascover%--picture="%coverfile%"%hascover% %source% -o %dest%
TOC of the extracted CD
Track | Start | Length | Start sector | End sector
---------------------------------------------------------
1 | 0:00.00 | 0:11.66 | 0 | 890
2 | 0:11.66 | 0:32.41 | 891 | 3331
3 | 0:44.32 | 0:31.11 | 3332 | 5667
4 | 1:15.43 | 0:41.61 | 5668 | 8803
5 | 1:57.29 | 1:04.31 | 8804 | 13634
6 | 3:01.60 | 2:04.57 | 13635 | 22991
7 | 5:06.42 | 2:02.38 | 22992 | 32179
8 | 7:09.05 | 1:22.23 | 32180 | 38352
9 | 8:31.28 | 1:18.38 | 38353 | 44240
10 | 9:49.66 | 0:57.52 | 44241 | 48567
11 | 10:47.43 | 1:28.67 | 48568 | 55234
12 | 12:16.35 | 2:41.67 | 55235 | 67376
13 | 14:58.27 | 1:10.22 | 67377 | 72648
14 | 16:08.49 | 1:19.53 | 72649 | 78626
15 | 17:28.27 | 2:10.00 | 78627 | 88376
16 | 19:38.27 | 2:35.61 | 88377 | 100062
17 | 22:14.13 | 3:39.63 | 100063 | 116550
18 | 25:54.01 | 2:08.50 | 116551 | 126200
19 | 28:02.51 | 2:55.09 | 126201 | 139334
20 | 30:57.60 | 1:36.71 | 139335 | 146605
21 | 32:34.56 | 3:01.66 | 146606 | 160246
22 | 35:36.47 | 2:26.40 | 160247 | 171236
23 | 38:03.12 | 1:26.22 | 171237 | 177708
24 | 39:29.34 | 0:52.21 | 177709 | 181629
25 | 40:21.55 | 0:28.41 | 181630 | 183770
26 | 40:50.21 | 1:37.49 | 183771 | 191094
27 | 42:27.70 | 0:45.02 | 191095 | 194471
28 | 43:12.72 | 1:06.64 | 194472 | 199485
29 | 44:19.61 | 0:43.63 | 199486 | 202773
30 | 45:03.49 | 0:53.49 | 202774 | 206797
31 | 45:57.23 | 0:58.33 | 206798 | 211180
32 | 46:55.56 | 4:49.61 | 211181 | 232916
33 | 51:45.42 | 1:14.36 | 232917 | 238502
34 | 53:00.03 | 0:44.21 | 238503 | 241823
35 | 53:44.24 | 1:30.40 | 241824 | 248613
Track 1
Filename D:\zzz\01 - Nose 0.wav
Pre-gap length 0:00:02.00
Peak level 48.1 %
Extraction speed 1.1 X
Track quality 100.0 %
Test CRC DE006859
Copy CRC DE006859
Track not present in AccurateRip database
Copy OK
Track 2
Filename D:\zzz\02 - Nose 1.wav
Peak level 84.9 %
Extraction speed 1.4 X
Track quality 99.6 %
Test CRC 466A3A11
Copy CRC 466A3A11
Track not present in AccurateRip database
Copy OK
Track 3
Filename D:\zzz\03 - Nose 2.wav
Peak level 95.7 %
Extraction speed 2.2 X
Track quality 100.0 %
Test CRC D80FB4B5
Copy CRC D80FB4B5
Track not present in AccurateRip database
Copy OK
Track 4
Filename D:\zzz\04 - Nose 3.wav
Peak level 95.9 %
Extraction speed 1.7 X
Track quality 99.7 %
Test CRC FEFD95AA
Copy CRC FEFD95AA
Track not present in AccurateRip database
Copy OK
Track 5
Filename D:\zzz\05 - Nose 4.wav
Peak level 95.9 %
Extraction speed 2.3 X
Track quality 99.8 %
Test CRC F1B8088C
Copy CRC F1B8088C
Track not present in AccurateRip database
Copy OK
Track 6
Filename D:\zzz\06 - Nose 5.wav
Peak level 95.9 %
Extraction speed 4.0 X
Track quality 100.0 %
Test CRC 33050EF9
Copy CRC 33050EF9
Track not present in AccurateRip database
Copy OK
Track 7
Filename D:\zzz\07 - Ear 0.wav
Peak level 54.8 %
Extraction speed 3.4 X
Track quality 99.9 %
Test CRC 283F5111
Copy CRC 283F5111
Track not present in AccurateRip database
Copy OK
Track 8
Filename D:\zzz\08 - Ear 1.wav
Peak level 95.8 %
Extraction speed 3.0 X
Track quality 99.8 %
Test CRC 16971140
Copy CRC 16971140
Track not present in AccurateRip database
Copy OK
Track 9
Filename D:\zzz\09 - Ear 2.wav
Peak level 95.9 %
Extraction speed 4.0 X
Track quality 100.0 %
Test CRC 13A46B9C
Copy CRC 13A46B9C
Track not present in AccurateRip database
Copy OK
Track 10
Filename D:\zzz\10 - Ear 3.wav
Peak level 95.9 %
Extraction speed 3.6 X
Track quality 100.0 %
Test CRC 82692717
Copy CRC 82692717
Track not present in AccurateRip database
Copy OK
Track 11
Filename D:\zzz\11 - Ear 4.wav
Peak level 33.4 %
Extraction speed 4.2 X
Track quality 100.0 %
Test CRC 5A8EC1ED
Copy CRC 5A8EC1ED
Track not present in AccurateRip database
Copy OK
Track 12
Filename D:\zzz\12 - Ear 5.wav
Peak level 95.9 %
Extraction speed 5.1 X
Track quality 100.0 %
Test CRC E0B7FDD7
Copy CRC E0B7FDD7
Track not present in AccurateRip database
Copy OK
Track 13
Filename D:\zzz\13 - Hair 0.wav
Peak level 26.8 %
Extraction speed 4.2 X
Track quality 100.0 %
Test CRC 34AAA299
Copy CRC 34AAA299
Track not present in AccurateRip database
Copy OK
Track 14
Filename D:\zzz\14 - Hair 1.wav
Peak level 93.8 %
Extraction speed 4.5 X
Track quality 100.0 %
Test CRC 367F489A
Copy CRC 367F489A
Track not present in AccurateRip database
Copy OK
Track 15
Filename D:\zzz\15 - Hair 2.wav
Peak level 95.9 %
Extraction speed 5.2 X
Track quality 100.0 %
Test CRC 4C736655
Copy CRC 4C736655
Track not present in AccurateRip database
Copy OK
Track 16
Filename D:\zzz\16 - Hair 3.wav
Peak level 95.9 %
Extraction speed 5.6 X
Track quality 100.0 %
Test CRC D6DFC571
Copy CRC D6DFC571
Track not present in AccurateRip database
Copy OK
Track 17
Filename D:\zzz\17 - Hair 4.wav
Peak level 95.9 %
Extraction speed 6.2 X
Track quality 100.0 %
Test CRC 4E1D2A17
Copy CRC 4E1D2A17
Track not present in AccurateRip database
Copy OK
Track 18
Filename D:\zzz\18 - Forehead 0.wav
Peak level 95.9 %
Extraction speed 5.7 X
Track quality 100.0 %
Test CRC 0BB510EA
Copy CRC 0BB510EA
Track not present in AccurateRip database
Copy OK
Track 19
Filename D:\zzz\19 - Forehead 1.wav
Peak level 55.3 %
Extraction speed 6.3 X
Track quality 100.0 %
Test CRC D106665E
Copy CRC D106665E
Track not present in AccurateRip database
Copy OK
Track 20
Filename D:\zzz\20 - Forehead 2.wav
Peak level 43.0 %
Extraction speed 4.4 X
Track quality 99.8 %
Test CRC C019778E
Copy CRC C019778E
Track not present in AccurateRip database
Copy OK
Track 21
Filename D:\zzz\21 - Forehead 3.wav
Peak level 95.9 %
Extraction speed 6.6 X
Track quality 100.0 %
Test CRC 319B7282
Copy CRC 319B7282
Track not present in AccurateRip database
Copy OK
Track 22
Filename D:\zzz\22 - Forehead 4.wav
Peak level 95.9 %
Extraction speed 6.4 X
Track quality 100.0 %
Test CRC 2E42F4D5
Copy CRC 2E42F4D5
Track not present in AccurateRip database
Copy OK
Track 23
Filename D:\zzz\23 - Forehead 5.wav
Peak level 95.9 %
Extraction speed 4.5 X
Track quality 99.8 %
Test CRC 03A299C7
Copy CRC 03A299C7
Track not present in AccurateRip database
Copy OK
Track 24
Filename D:\zzz\24 - Chin 0.wav
Peak level 65.7 %
Extraction speed 4.9 X
Track quality 100.0 %
Test CRC 68C6DB4A
Copy CRC 68C6DB4A
Track not present in AccurateRip database
Copy OK
Track 25
Filename D:\zzz\25 - Chin 2.wav
Peak level 82.5 %
Extraction speed 2.3 X
Track quality 99.6 %
Test CRC 92C33662
Copy CRC 92C33662
Track not present in AccurateRip database
Copy OK
Track 26
Filename D:\zzz\26 - Chin 3.wav
Peak level 95.9 %
Extraction speed 6.1 X
Track quality 100.0 %
Test CRC D13BBFB9
Copy CRC D13BBFB9
Track not present in AccurateRip database
Copy OK
Track 27
Filename D:\zzz\27 - Chin 4.wav
Peak level 95.9 %
Extraction speed 4.7 X
Track quality 100.0 %
Test CRC 52957931
Copy CRC 52957931
Track not present in AccurateRip database
Copy OK
Track 28
Filename D:\zzz\28 - Chin 5.wav
Peak level 95.9 %
Extraction speed 5.4 X
Track quality 100.0 %
Test CRC 5D7F3E39
Copy CRC 5D7F3E39
Track not present in AccurateRip database
Copy OK
Track 29
Filename D:\zzz\29 - Mouth 0.wav
Peak level 80.3 %
Extraction speed 3.2 X
Track quality 99.7 %
Test CRC 0BF9ABB1
Copy CRC 0BF9ABB1
Track not present in AccurateRip database
Copy OK
Track 30
Filename D:\zzz\30 - Mouth 1.wav
Peak level 94.9 %
Extraction speed 5.1 X
Track quality 100.0 %
Test CRC 46DFA808
Copy CRC 46DFA808
Track not present in AccurateRip database
Copy OK
Track 31
Filename D:\zzz\31 - Mouth 2.wav
Peak level 72.8 %
Extraction speed 3.9 X
Track quality 99.8 %
Test CRC 0D60F66B
Copy CRC 0D60F66B
Track not present in AccurateRip database
Copy OK
Track 32
Filename D:\zzz\32 - Mouth 4.wav
Peak level 95.9 %
Extraction speed 7.1 X
Track quality 99.9 %
Test CRC F6C54CB7
Copy CRC F6C54CB7
Track not present in AccurateRip database
Copy OK
Track 33
Filename D:\zzz\33 - Mouth 5.wav
Peak level 95.9 %
Extraction speed 6.1 X
Track quality 100.0 %
Test CRC F2A4BA9A
Copy CRC F2A4BA9A
Track not present in AccurateRip database
Copy OK
Track 34
Filename D:\zzz\34 - Neck 0.wav
Peak level 85.4 %
Extraction speed 5.0 X
Track quality 100.0 %
Test CRC D285D7F4
Copy CRC D285D7F4
Track not present in AccurateRip database
Copy OK
Track 35
Filename D:\zzz\35 - Neck 1.wav
Peak level 92.6 %
Extraction speed 6.5 X
Track quality 100.0 %
Test CRC 8AE54ACE
Copy CRC 8AE54ACE
Track not present in AccurateRip database
Copy OK
None of the tracks are present in the AccurateRip database
No errors occurred
End of status report
==== Log checksum F9448B097FABB9696011755841C21BD9AF151586271D5BAE3A062354B0D0DFAF ====
 
Содержание индексной карты (.CUE)
REM GENRE "Avant-Garde Jazz"
REM DATE 2009
REM DISCID E40CF223
REM COMMENT "ExactAudioCopy v1.0b3"
PERFORMER "Christian Asplund"
TITLE "The Anatomy Series"
FILE "01 - Nose 0.wav" WAVE
TRACK 01 AUDIO
TITLE "Nose 0"
PERFORMER "Christian Asplund"
INDEX 01 00:00:00
FILE "02 - Nose 1.wav" WAVE
TRACK 02 AUDIO
TITLE "Nose 1"
PERFORMER "Christian Asplund"
INDEX 01 00:00:00
FILE "03 - Nose 2.wav" WAVE
TRACK 03 AUDIO
TITLE "Nose 2"
PERFORMER "Christian Asplund"
INDEX 01 00:00:00
FILE "04 - Nose 3.wav" WAVE
TRACK 04 AUDIO
TITLE "Nose 3"
PERFORMER "Christian Asplund"
INDEX 01 00:00:00
FILE "05 - Nose 4.wav" WAVE
TRACK 05 AUDIO
TITLE "Nose 4"
PERFORMER "Christian Asplund"
INDEX 01 00:00:00
FILE "06 - Nose 5.wav" WAVE
TRACK 06 AUDIO
TITLE "Nose 5"
PERFORMER "Christian Asplund"
INDEX 01 00:00:00
FILE "07 - Ear 0.wav" WAVE
TRACK 07 AUDIO
TITLE "Ear 0"
PERFORMER "Christian Asplund"
INDEX 01 00:00:00
FILE "08 - Ear 1.wav" WAVE
TRACK 08 AUDIO
TITLE "Ear 1"
PERFORMER "Christian Asplund"
INDEX 01 00:00:00
FILE "09 - Ear 2.wav" WAVE
TRACK 09 AUDIO
TITLE "Ear 2"
PERFORMER "Christian Asplund"
INDEX 01 00:00:00
FILE "10 - Ear 3.wav" WAVE
TRACK 10 AUDIO
TITLE "Ear 3"
PERFORMER "Christian Asplund"
INDEX 01 00:00:00
FILE "11 - Ear 4.wav" WAVE
TRACK 11 AUDIO
TITLE "Ear 4"
PERFORMER "Christian Asplund"
INDEX 01 00:00:00
FILE "12 - Ear 5.wav" WAVE
TRACK 12 AUDIO
TITLE "Ear 5"
PERFORMER "Christian Asplund"
INDEX 01 00:00:00
FILE "13 - Hair 0.wav" WAVE
TRACK 13 AUDIO
TITLE "Hair 0"
PERFORMER "Christian Asplund"
INDEX 01 00:00:00
FILE "14 - Hair 1.wav" WAVE
TRACK 14 AUDIO
TITLE "Hair 1"
PERFORMER "Christian Asplund"
INDEX 01 00:00:00
FILE "15 - Hair 2.wav" WAVE
TRACK 15 AUDIO
TITLE "Hair 2"
PERFORMER "Christian Asplund"
INDEX 01 00:00:00
FILE "16 - Hair 3.wav" WAVE
TRACK 16 AUDIO
TITLE "Hair 3"
PERFORMER "Christian Asplund"
INDEX 01 00:00:00
FILE "17 - Hair 4.wav" WAVE
TRACK 17 AUDIO
TITLE "Hair 4"
PERFORMER "Christian Asplund"
INDEX 01 00:00:00
FILE "18 - Forehead 0.wav" WAVE
TRACK 18 AUDIO
TITLE "Forehead 0"
PERFORMER "Christian Asplund"
INDEX 01 00:00:00
FILE "19 - Forehead 1.wav" WAVE
TRACK 19 AUDIO
TITLE "Forehead 1"
PERFORMER "Christian Asplund"
INDEX 01 00:00:00
FILE "20 - Forehead 2.wav" WAVE
TRACK 20 AUDIO
TITLE "Forehead 2"
PERFORMER "Christian Asplund"
INDEX 01 00:00:00
FILE "21 - Forehead 3.wav" WAVE
TRACK 21 AUDIO
TITLE "Forehead 3"
PERFORMER "Christian Asplund"
INDEX 01 00:00:00
FILE "22 - Forehead 4.wav" WAVE
TRACK 22 AUDIO
TITLE "Forehead 4"
PERFORMER "Christian Asplund"
INDEX 01 00:00:00
FILE "23 - Forehead 5.wav" WAVE
TRACK 23 AUDIO
TITLE "Forehead 5"
PERFORMER "Christian Asplund"
INDEX 01 00:00:00
FILE "24 - Chin 0.wav" WAVE
TRACK 24 AUDIO
TITLE "Chin 0"
PERFORMER "Christian Asplund"
INDEX 01 00:00:00
FILE "25 - Chin 2.wav" WAVE
TRACK 25 AUDIO
TITLE "Chin 2"
PERFORMER "Christian Asplund"
INDEX 01 00:00:00
FILE "26 - Chin 3.wav" WAVE
TRACK 26 AUDIO
TITLE "Chin 3"
PERFORMER "Christian Asplund"
INDEX 01 00:00:00
FILE "27 - Chin 4.wav" WAVE
TRACK 27 AUDIO
TITLE "Chin 4"
PERFORMER "Christian Asplund"
INDEX 01 00:00:00
FILE "28 - Chin 5.wav" WAVE
TRACK 28 AUDIO
TITLE "Chin 5"
PERFORMER "Christian Asplund"
INDEX 01 00:00:00
FILE "29 - Mouth 0.wav" WAVE
TRACK 29 AUDIO
TITLE "Mouth 0"
PERFORMER "Christian Asplund"
INDEX 01 00:00:00
FILE "30 - Mouth 1.wav" WAVE
TRACK 30 AUDIO
TITLE "Mouth 1"
PERFORMER "Christian Asplund"
INDEX 01 00:00:00
FILE "31 - Mouth 2.wav" WAVE
TRACK 31 AUDIO
TITLE "Mouth 2"
PERFORMER "Christian Asplund"
INDEX 01 00:00:00
FILE "32 - Mouth 4.wav" WAVE
TRACK 32 AUDIO
TITLE "Mouth 4"
PERFORMER "Christian Asplund"
INDEX 01 00:00:00
FILE "33 - Mouth 5.wav" WAVE
TRACK 33 AUDIO
TITLE "Mouth 5"
PERFORMER "Christian Asplund"
INDEX 01 00:00:00
FILE "34 - Neck 0.wav" WAVE
TRACK 34 AUDIO
TITLE "Neck 0"
PERFORMER "Christian Asplund"
INDEX 01 00:00:00
FILE "35 - Neck 1.wav" WAVE
TRACK 35 AUDIO
TITLE "Neck 1"
PERFORMER "Christian Asplund"
INDEX 01 00:00:00
 
Лог проверки качества
d:\>d:\aucdtect -d/-m0 d:\zzz\*.wav
auCDtect: CD records authenticity detector, version 0.8.2
Copyright (c) 2004 Oleg Berngardt. All rights reserved.
Copyright (c) 2004 Alexander Djourik. All rights reserved.
------------------------------------------------------------
Processing file: [01. Nose 0.wav]
------------------------------------------------------------
This track looks like CDDA with probability 99%
------------------------------------------------------------
Processing file: [02. Nose 1.wav]
------------------------------------------------------------
This track looks like CDDA with probability 100%
------------------------------------------------------------
Processing file: [03. Nose 2.wav]
------------------------------------------------------------
This track looks like CDDA with probability 100%
------------------------------------------------------------
Processing file: [04. Nose 3.wav]
------------------------------------------------------------
This track looks like CDDA with probability 100%
------------------------------------------------------------
Processing file: [05. Nose 4.wav]
------------------------------------------------------------
This track looks like CDDA with probability 100%
------------------------------------------------------------
Processing file: [06. Nose 5.wav]
------------------------------------------------------------
This track looks like CDDA with probability 100%
------------------------------------------------------------
Processing file: [07. Ear 0.wav]
------------------------------------------------------------
This track looks like CDDA with probability 100%
------------------------------------------------------------
Processing file: [08. Ear 1.wav]
------------------------------------------------------------
This track looks like CDDA with probability 92%
------------------------------------------------------------
Processing file: [09. Ear 2.wav]
------------------------------------------------------------
This track looks like CDDA with probability 100%
------------------------------------------------------------
Processing file: [10. Ear 3.wav]
------------------------------------------------------------
This track looks like CDDA with probability 100%
------------------------------------------------------------
Processing file: [11. Ear 4.wav]
------------------------------------------------------------
This track looks like CDDA with probability 86%
------------------------------------------------------------
Processing file: [12. Ear 5.wav]
------------------------------------------------------------
This track looks like CDDA with probability 100%
------------------------------------------------------------
Processing file: [13. Hair 0.wav]
------------------------------------------------------------
This track looks like MPEG with probability 100%
------------------------------------------------------------
Processing file: [14. Hair 1.wav]
------------------------------------------------------------
This track looks like CDDA with probability 100%
------------------------------------------------------------
Processing file: [15. Hair 2.wav]
------------------------------------------------------------
This track looks like CDDA with probability 100%
------------------------------------------------------------
Processing file: [16. Hair 3.wav]
------------------------------------------------------------
This track looks like CDDA with probability 100%
------------------------------------------------------------
Processing file: [17. Hair 4.wav]
------------------------------------------------------------
This track looks like CDDA with probability 100%
------------------------------------------------------------
Processing file: [18. Forehead 0.wav]
------------------------------------------------------------
This track looks like CDDA with probability 100%
------------------------------------------------------------
Processing file: [19. Forehead 1.wav]
------------------------------------------------------------
This track looks like CDDA with probability 100%
------------------------------------------------------------
Processing file: [20. Forehead 2.wav]
------------------------------------------------------------
This track looks like CDDA with probability 99%
------------------------------------------------------------
Processing file: [21. Forehead 3.wav]
------------------------------------------------------------
This track looks like CDDA with probability 100%
------------------------------------------------------------
Processing file: [22. Forehead 4.wav]
------------------------------------------------------------
This track looks like CDDA with probability 99%
------------------------------------------------------------
Processing file: [23. Forehead 5.wav]
------------------------------------------------------------
This track looks like CDDA with probability 100%
------------------------------------------------------------
Processing file: [24. Chin 0.wav]
------------------------------------------------------------
This track looks like CDDA with probability 100%
------------------------------------------------------------
Processing file: [25. Chin 2.wav]
------------------------------------------------------------
This track looks like CDDA with probability 100%
------------------------------------------------------------
Processing file: [26. Chin 3.wav]
------------------------------------------------------------
This track looks like CDDA with probability 100%
------------------------------------------------------------
Processing file: [27. Chin 4.wav]
------------------------------------------------------------
This track looks like CDDA with probability 62%
------------------------------------------------------------
Processing file: [28. Chin 5.wav]
------------------------------------------------------------
This track looks like CDDA with probability 100%
------------------------------------------------------------
Processing file: [29. Mouth 0.wav]
------------------------------------------------------------
This track looks like CDDA with probability 100%
------------------------------------------------------------
Processing file: [30. Mouth 1.wav]
------------------------------------------------------------
This track looks like CDDA with probability 100%
------------------------------------------------------------
Processing file: [31. Mouth 2.wav]
------------------------------------------------------------
This track looks like CDDA with probability 100%
------------------------------------------------------------
Processing file: [32. Mouth 4.wav]
------------------------------------------------------------
This track looks like CDDA with probability 100%
------------------------------------------------------------
Processing file: [33. Mouth 5.wav]
------------------------------------------------------------
This track looks like CDDA with probability 94%
------------------------------------------------------------
Processing file: [34. Neck 0.wav]
------------------------------------------------------------
This track looks like CDDA with probability 100%
------------------------------------------------------------
Processing file: [35. Neck 1.wav]
------------------------------------------------------------
This track looks like CDDA with probability 99%
------------------------------------------------------------
Final Conclusion:
------------------------------------------------------------
Could not qualify the source of these tracks.
Доп. информация:
 
Slugmag.com Review
Recorded live, The Anatomy Series is a performance that took place on the Sonarchy Radio Hour back in 2000. Featuring Christian Asplund on piano, Greg Campbell on drums, and Mark France on guitar, the trio bang, plow, creep, and occasionally almost groove their way through nearly 55 minutes of metal-tinted prog-jazz. There are seven pieces here, but the CD is broken into 35 tracks, each containing a single movement, bringing many a tear to the iPod generation. The music changes time signatures frequently and stops and starts just as much, each pause usually followed by a wandering piano line or a screeching guitar and a lurching drumbeat. While some moments feel constrained by the mind/finger flexing of musical academia, the group occasionally opens up and busts out a mean riff that would fit perfectly in an evil clown-car chase scene. David Lynch, look these dudes up. If you ever want to film an evil clown-car chase scene, that is.
 
Состав
Drums – Greg Campbell
Guitar – Mark France
Piano – Christian Asplund
Live recording of Sonarchy Radio Hour performance, 29 July 2000, Jack Straw Productions.
Any questions -> support@pro-jazz.com. По всем вопросам пишите -> support@pro-jazz.com
18:59
173
Нет комментариев. Ваш будет первым!