Вы используете незарегистрированную версию компонента "Вкладки"!

Поиск

(Free Jazz, Avant-Garde Jazz, Big Band, Nine Winds) The Vinny Golia Large Ensemble - Portland 1996 - 1997, FLAC (tracks+.cue), lossless

(Free Jazz, Avant-Garde Jazz, Big Band, Nine Winds) The Vinny Golia Large Ensemble - Portland 1996 - 1997, FLAC (tracks+.cue), lossless
Треклист:
The Vinny Golia Large Ensemble / Portland 1996
Жанр: Free Jazz, Avant-Garde Jazz, Big Band, Nine Winds
Страна-производитель диска: US
Год издания: 1997
Издатель (лейбл): 9 Winds
Номер по каталогу: NWCD0180
Страна: US
Аудиокодек: FLAC (*.flac)
Тип рипа: tracks+.cue
Битрейт аудио: lossless
Продолжительность: 64:41
Источник (релизер): свой фирменный диск
Наличие сканов в содержимом раздачи:
Треклист:
1 Surrounded By Assassins 12:44
2 Blue Hawk (For Ben, Pres And The Hawk) 25:57
Heighten, A Mini Suite In 4 Sections
3 Intro 4:06
4 It Ain't Easy 4:03
5 Connector 5:17
6 Centerpiece 12:31
 
Лог создания рипа
Exact Audio Copy V1.0 beta 3 from 29. August 2011
EAC extraction logfile from 9. October 2013, 19:39
The Vinny Golia Large Ensemble / Portland 1996
Used drive : PIONEER DVD-RW DVR-115D Adapter: 0 ID: 0
Read mode : Secure
Utilize accurate stream : Yes
Defeat audio cache : Yes
Make use of C2 pointers : No
Read offset correction : 48
Overread into Lead-In and Lead-Out : No
Fill up missing offset samples with silence : Yes
Delete leading and trailing silent blocks : No
Null samples used in CRC calculations : Yes
Used interface : Installed external ASPI interface
Gap handling : Appended to previous track
Used output format : User Defined Encoder
Selected bitrate : 896 kBit/s
Quality : High
Add ID3 tag : No
Command line compressor : C:\Program Files\Exact Audio Copy\FLAC\FLAC.EXE
Additional command line options : -6 -V -T "ARTIST=%artist%" -T "TITLE=%title%" -T "ALBUM=%albumtitle%" -T "DATE=%year%" -T "TRACKNUMBER=%tracknr%" -T "GENRE=%genre%" -T "COMMENT=%comment%" -T "BAND=%albuminterpret%" -T "COMPOSER=%composer%" %haslyrics%--tag-from-file=LYRICS="%lyricsfile%"%haslyrics% -T "DISCNUMBER=%cdnumber%" -T "TOTALDISCS=%totalcds%" -T "TOTALTRACKS=%numtracks%" %hascover%--picture="%coverfile%"%hascover% %source% -o %dest%
TOC of the extracted CD
Track | Start | Length | Start sector | End sector
---------------------------------------------------------
1 | 0:00.00 | 12:45.40 | 0 | 57414
2 | 12:45.40 | 25:56.42 | 57415 | 174156
3 | 38:42.07 | 4:06.27 | 174157 | 192633
4 | 42:48.34 | 4:03.36 | 192634 | 210894
5 | 46:51.70 | 5:17.65 | 210895 | 234734
6 | 52:09.60 | 12:31.65 | 234735 | 291124
Track 1
Filename D:\zzz\01 - Surrounded By Assassins.wav
Pre-gap length 0:00:02.00
Peak level 97.5 %
Extraction speed 5.5 X
Track quality 100.0 %
Test CRC DD95187B
Copy CRC DD95187B
Accurately ripped (confidence 1) [7E848339] (AR v2)
Copy OK
Track 2
Filename D:\zzz\02 - Blue Hawk (For Ben, Prez And The Hawk).wav
Peak level 99.0 %
Extraction speed 7.4 X
Track quality 100.0 %
Test CRC 799E3100
Copy CRC 799E3100
Accurately ripped (confidence 1) [6F6A7B0D] (AR v2)
Copy OK
Track 3
Filename D:\zzz\03 - Heighten- Intro.wav
Peak level 86.4 %
Extraction speed 7.5 X
Track quality 100.0 %
Test CRC 5FCA4E81
Copy CRC 5FCA4E81
Accurately ripped (confidence 1) [E828CE7F] (AR v2)
Copy OK
Track 4
Filename D:\zzz\04 - Heighten- It Aint Easy.wav
Peak level 99.0 %
Extraction speed 7.7 X
Track quality 100.0 %
Test CRC 59C6D00E
Copy CRC 59C6D00E
Accurately ripped (confidence 1) [3ED1A101] (AR v2)
Copy OK
Track 5
Filename D:\zzz\05 - Heighten- Connector.wav
Peak level 99.0 %
Extraction speed 8.3 X
Track quality 100.0 %
Test CRC EEB30029
Copy CRC EEB30029
Accurately ripped (confidence 1) [3107F9AD] (AR v2)
Copy OK
Track 6
Filename D:\zzz\06 - Heighten- Centerpiece.wav
Peak level 99.0 %
Extraction speed 9.3 X
Track quality 100.0 %
Test CRC 76040B65
Copy CRC 76040B65
Accurately ripped (confidence 1) [1B4953E0] (AR v2)
Copy OK
All tracks accurately ripped
No errors occurred
End of status report
==== Log checksum 87DAEB625DE196F330287072281645A52B9C9534418AAC574A6D8CE45C530972 ====
 
Содержание индексной карты (.CUE)
REM GENRE "Avant-Garde Jazz"
REM DATE 1997
REM DISCID 450F2906
REM COMMENT "ExactAudioCopy v1.0b3"
PERFORMER "The Vinny Golia Large Ensemble"
TITLE "Portland 1996"
FILE "01 - Surrounded By Assassins.wav" WAVE
TRACK 01 AUDIO
TITLE "Surrounded By Assassins"
PERFORMER "The Vinny Golia Large Ensemble"
INDEX 01 00:00:00
FILE "02 - Blue Hawk (For Ben, Prez And The Hawk).wav" WAVE
TRACK 02 AUDIO
TITLE "Blue Hawk (For Ben, Prez And The Hawk)"
PERFORMER "The Vinny Golia Large Ensemble"
INDEX 01 00:00:00
FILE "03 - Heighten- Intro.wav" WAVE
TRACK 03 AUDIO
TITLE "Heighten: Intro"
PERFORMER "The Vinny Golia Large Ensemble"
INDEX 01 00:00:00
FILE "04 - Heighten- It Aint Easy.wav" WAVE
TRACK 04 AUDIO
TITLE "Heighten: It Aint Easy"
PERFORMER "The Vinny Golia Large Ensemble"
INDEX 01 00:00:00
FILE "05 - Heighten- Connector.wav" WAVE
TRACK 05 AUDIO
TITLE "Heighten: Connector"
PERFORMER "The Vinny Golia Large Ensemble"
INDEX 01 00:00:00
FILE "06 - Heighten- Centerpiece.wav" WAVE
TRACK 06 AUDIO
TITLE "Heighten: Centerpiece"
PERFORMER "The Vinny Golia Large Ensemble"
INDEX 01 00:00:00
 
Лог проверки качества
d:\>d:\aucdtect -d/-m0 d:\zzz\*.wav
auCDtect: CD records authenticity detector, version 0.8.2
Copyright (c) 2004 Oleg Berngardt. All rights reserved.
Copyright (c) 2004 Alexander Djourik. All rights reserved.
------------------------------------------------------------
Processing file: [01. Surrounded By Assassins.wav]
------------------------------------------------------------
This track looks like CDDA with probability 100%
------------------------------------------------------------
Processing file: [02. Blue Hawk (For Ben, Prez And The Hawk).wav]
------------------------------------------------------------
This track looks like CDDA with probability 100%
------------------------------------------------------------
Processing file: [03. Heighten- Intro.wav]
------------------------------------------------------------
This track looks like CDDA with probability 100%
------------------------------------------------------------
Processing file: [04. Heighten- It Aint Easy.wav]
------------------------------------------------------------
This track looks like CDDA with probability 100%
------------------------------------------------------------
Processing file: [05. Heighten- Connector.wav]
------------------------------------------------------------
This track looks like CDDA with probability 100%
------------------------------------------------------------
Processing file: [06. Heighten- Centerpiece.wav]
------------------------------------------------------------
This track looks like CDDA with probability 100%
------------------------------------------------------------
Final Conclusion:
------------------------------------------------------------
These tracks looks like CDDA with probability 100%
Доп. информация:
 
AMG Review
It can be remarkably difficult to mold a large assemblage of improvisers into an effective performance unit. Improvisers tend not to be the best sight readers, for one thing. If there's much written material, things are liable to be loose, at best. Most leaders of free jazz-based big bands -- William Parker comes to mind -- use only skeletal compositions, or none at all, preferring to treat the ensemble as an enormous organ with flesh and blood stops; they'll conduct/improvise, using prearranged gestures to indicate tempo, key, rhythms, etc. The resultant performance is usually messy, always dissonant, and sometimes not very happening. In contrast, Vinny Golia uses much written material, and while the performance is not exactly tight, there's enough precision to keep even the most curmudgeonly critic at bay. Golia has apparently chosen musicians who can both read and improvise well. His material is substantial; his compositions are determinedly non-tonal -- quasi-serialist, even -- but with a definite jazz sensibility. This is not a typical big band; in addition to the usual saxes, trumpets, trombones, and rhythm, Golia uses bassoon, timpani, and a sizable string section. In keeping with Golia's penchant for multiple reeds, all of his saxophonists double on several instruments. Writing music for such a large band of improvisers and actually getting it played is an accomplishment in itself. Not only does Golia manage to get it played, he gets it played well. There are sections where the band sounds like it's rehearsing a monstrously difficult contemporary classical score, but for the most part the musicians perform the music with a reasonable amount of exactitude and great verve. As you would expect from a band that counts Golia, bassist Ken Filiano, and saxophonist Steve Adams among its members, the soloists are excellent. Big bands might be a pain to get together, but when everything goes well -- as it does here -- they can create wonderful music.
 
Состав
Bassoon – Charles Fernandez
Cello – Jonathan Golove, Peggy Lee
Chimes, Timpani, Vibraphone, Marimba – David Johnson
Composed By, Piccolo Flute, Flute [Alto], Flute [Bass], Sopranino Saxophone, Soprano Saxophone, Tenor Saxophone, Baritone Saxophone, Bass Saxophone, Clarinet [Eb], Clarinet [A], Clarinet [Bb], Clarinet [Alto], Bass Clarinet, Clarinet [Contrabass], Clarinet [Contra Alto], English Horn, Bassoon, Conductor – Vinny Golia
Conductor – Stephanie Henry
Double Bass – Joel Hamilton, Ken Filiano
Drums, Percussion – Alex Cline
Flute, Alto Saxophone – Steve Fowler
Keyboards, Piano – Wayne Peet
Marimba, Timpani, Bells [Orchestra], Percussion [Hand] – Brad Dutz
Piccolo Flute, Flute [C], Flute [Alto], Flute [Bass], Sopranino Saxophone, Soprano Saxophone, Tenor Saxophone, Alto Saxophone – Steve Adams
Piccolo Flute, Flute [C], Flute [Alto], Soprano Saxophone, Tenor Saxophone – Bill Plake
Piccolo Flute, Flute, Clarinet [Bb], Bass Clarinet, Alto Saxophone – Kim Richmond
Trombone – George McMullen, Mike Vlatkovich
Trombone [Bass] – Robie Hioki
Trumpet, Flugelhorn – John Fumo, Rob Blakeslee, Sal Cracchiolo
Tuba – William Roper
Violin – Harry Scorzo, Jeff Gauthier
Recorded February 13, 1996 in concert at Warner Pacific College, Portland, Oregon
Any questions -> support@pro-jazz.com. По всем вопросам пишите -> support@pro-jazz.com
19:00
144
Нет комментариев. Ваш будет первым!