Вы используете незарегистрированную версию компонента "Вкладки"!

Поиск

(Avant-Garde, Free Improvisation, Hat Hut) Samuel Blaser Quartet (Marc Ducret, Baenz Oester, Gerald Cleaver) - As the Sea - 2012, FLAC (tracks+.cue), lossless

(Avant-Garde, Free Improvisation, Hat Hut) Samuel Blaser Quartet (Marc Ducret, Baenz Oester, Gerald Cleaver) - As the Sea - 2012, FLAC (tracks+.cue), lossless
Треклист:
Samuel Blaser Quartet / As the Sea
Жанр: Avant-Garde, Free Improvisation, Hat Hut
Страна-производитель диска: Switzerland
Год издания: 2012
Издатель (лейбл): Hat Hut
Номер по каталогу: hatOLOGY 718
Аудиокодек: FLAC (*.flac)
Тип рипа: tracks+.cue
Битрейт аудио: lossless
Продолжительность: 51:12
Источник (релизер): Max Monteiro
Наличие сканов в содержимом раздачи: нет
Треклист:
1. As the Sea, part 1 (19:16)
2. As the Sea, part 2 (10:59)
3. As the Sea, part 3 (11:12)
4. As the Sea, part 4 (9:45)
All music composed by Samuel Blaser.
Recorded at Hnita-Jazz Club in Heist Op Den Berg, Belgium on November 5 and 6, 2011.
Samuel Blaser – Trombone
Marc Ducret – Guitar
Bänz Oester – Double Bass
Gerald Cleaver – Drums
 
Лог создания рипа
Exact Audio Copy V1.0 beta 3 from 29. August 2011
EAC extraction logfile from 12. October 2013, 16:15
Samuel Blaser Quartet / As the Sea
Used drive : SlimtypeeNAU508 5 Adapter: 1 ID: 0
Read mode : Secure
Utilize accurate stream : Yes
Defeat audio cache : Yes
Make use of C2 pointers : No
Read offset correction : 6
Overread into Lead-In and Lead-Out : No
Fill up missing offset samples with silence : Yes
Delete leading and trailing silent blocks : No
Null samples used in CRC calculations : Yes
Used interface : Native Win32 interface for Win NT & 2000
Gap handling : Appended to previous track
Used output format : User Defined Encoder
Selected bitrate : 768 kBit/s
Quality : High
Add ID3 tag : No
Command line compressor : C:\Program Files (x86)\Exact Audio Copy\Flac\flac.exe
Additional command line options : -8 -V -T "ARTIST=%artist%" -T "TITLE=%title%" -T "ALBUM=%albumtitle%" -T "DATE=%year%" -T "TRACKNUMBER=%tracknr%" -T "GENRE=%genre%" -T "PERFORMER=%albuminterpret%" -T "COMPOSER=%composer%" %haslyrics%--tag-from-file=LYRICS="%lyricsfile%"%haslyrics% -T "ALBUMARTIST=%albumartist%" -T "DISCNUMBER=%cdnumber%" -T "TOTALDISCS=%totalcds%" -T "TOTALTRACKS=%numtracks%" -T "COMMENT=%comment%" %source% -o %dest%
TOC of the extracted CD
Track | Start | Length | Start sector | End sector
---------------------------------------------------------
1 | 0:00.00 | 19:16.32 | 0 | 86731
2 | 19:16.32 | 10:58.50 | 86732 | 136131
3 | 30:15.07 | 11:11.65 | 136132 | 186521
4 | 41:26.72 | 9:45.05 | 186522 | 230401
Track 1
Filename C:\EAC rips\01 - As the Sea, part 1.wav
Pre-gap length 0:00:02.00
Peak level 97.7 %
Extraction speed 1.4 X
Track quality 100.0 %
Test CRC 40F9F739
Copy CRC 40F9F739
Track not present in AccurateRip database
Copy OK
Track 2
Filename C:\EAC rips\02 - As the Sea, part 2.wav
Peak level 97.7 %
Extraction speed 1.7 X
Track quality 99.9 %
Test CRC A9699986
Copy CRC A9699986
Track not present in AccurateRip database
Copy OK
Track 3
Filename C:\EAC rips\03 - As the Sea, part 3.wav
Peak level 97.7 %
Extraction speed 2.0 X
Track quality 100.0 %
Test CRC 0C008ADC
Copy CRC 0C008ADC
Track not present in AccurateRip database
Copy OK
Track 4
Filename C:\EAC rips\04 - As the Sea, part 4.wav
Peak level 97.0 %
Extraction speed 2.2 X
Track quality 100.0 %
Test CRC 8D3D36B8
Copy CRC 8D3D36B8
Track not present in AccurateRip database
Copy OK
None of the tracks are present in the AccurateRip database
No errors occurred
End of status report
---- CUETools DB Plugin V2.1.4
[CTDB TOCID: 6VpBdlVScCR8M.tLSVfWY6RvOOE-] disk not present in database
Submit result: Le serveur a commis une violation de protocole. Section=ResponseStatusLine
==== Log checksum 68F71E006289E7A8CF3C37609A941308AACBA069BC794F2CCA6CF8928DCE2DE7 ====
 
Содержание индексной карты (.CUE)
REM GENRE Jazz
REM DATE 2012
REM DISCID 380C0004
REM COMMENT "ExactAudioCopy v1.0b3"
PERFORMER "Samuel Blaser Quartet"
TITLE "As the Sea"
FILE "01 - As the Sea, part 1.wav" WAVE
TRACK 01 AUDIO
TITLE "As the Sea, part 1"
PERFORMER "Samuel Blaser Quartet"
ISRC CH1311101345
INDEX 01 00:00:00
FILE "02 - As the Sea, part 2.wav" WAVE
TRACK 02 AUDIO
TITLE "As the Sea, part 2"
PERFORMER "Samuel Blaser Quartet"
ISRC CH1311101346
INDEX 01 00:00:00
FILE "03 - As the Sea, part 3.wav" WAVE
TRACK 03 AUDIO
TITLE "As the Sea, part 3"
PERFORMER "Samuel Blaser Quartet"
ISRC CH1311101347
INDEX 01 00:00:00
FILE "04 - As the Sea, part 4.wav" WAVE
TRACK 04 AUDIO
TITLE "As the Sea, part 4"
PERFORMER "Samuel Blaser Quartet"
ISRC CH1311101348
INDEX 01 00:00:00
По всем вопросам пишите личное сообщение пользователю M0p94ok.
19:01
201
Нет комментариев. Ваш будет первым!