Вы используете незарегистрированную версию компонента "Вкладки"!

Поиск

(Avant-Garde Jazz, Free Jazz, Nine Winds) Johnnie Valentino (w/ Vinny Golia, Wadada Leo Smith, Andy Laster) - Searching Souls - 2002, FLAC (tracks+.cue), lossless

(Avant-Garde Jazz, Free Jazz, Nine Winds) Johnnie Valentino (w/ Vinny Golia, Wadada Leo Smith, Andy Laster) - Searching Souls - 2002, FLAC (tracks+.cue), lossless
Треклист:
Johnnie Valentino / Searching Souls
Жанр: Avant-Garde Jazz, Free Jazz, Nine Winds
Страна-производитель диска: US
Год издания: 2002
Издатель (лейбл): 9 Winds
Номер по каталогу: NWCD0233
Страна: US
Аудиокодек: FLAC (*.flac)
Тип рипа: tracks+.cue
Битрейт аудио: lossless
Продолжительность: 54:29
Источник (релизер): свой фирменный диск
Наличие сканов в содержимом раздачи:
Треклист:
1. Up And Down 5:31
2. Searching Souls 4:51
3. Black Cat 2:14
4. Vapor Burn 6:31
5. This Or That 2:15
6. Dark Matter 3:49
7. Ugly Beauty 5:07 (T. Monk)
8. The Harvest 4:13
9. Nono 4:57
10. Littleton 6:42
11. My Old Kentucky Home 2:10 (Stephen Foster)
12. Spiritual Blessing 6:09
 
Лог создания рипа
Exact Audio Copy V1.0 beta 3 from 29. August 2011
EAC extraction logfile from 10. October 2013, 23:06
Johnnie Valentino / Searching Souls
Used drive : PIONEER DVD-RW DVR-115D Adapter: 0 ID: 0
Read mode : Secure
Utilize accurate stream : Yes
Defeat audio cache : Yes
Make use of C2 pointers : No
Read offset correction : 48
Overread into Lead-In and Lead-Out : No
Fill up missing offset samples with silence : Yes
Delete leading and trailing silent blocks : No
Null samples used in CRC calculations : Yes
Used interface : Installed external ASPI interface
Gap handling : Appended to previous track
Used output format : User Defined Encoder
Selected bitrate : 896 kBit/s
Quality : High
Add ID3 tag : No
Command line compressor : C:\Program Files\Exact Audio Copy\FLAC\FLAC.EXE
Additional command line options : -6 -V -T "ARTIST=%artist%" -T "TITLE=%title%" -T "ALBUM=%albumtitle%" -T "DATE=%year%" -T "TRACKNUMBER=%tracknr%" -T "GENRE=%genre%" -T "COMMENT=%comment%" -T "BAND=%albuminterpret%" -T "COMPOSER=%composer%" %haslyrics%--tag-from-file=LYRICS="%lyricsfile%"%haslyrics% -T "DISCNUMBER=%cdnumber%" -T "TOTALDISCS=%totalcds%" -T "TOTALTRACKS=%numtracks%" %hascover%--picture="%coverfile%"%hascover% %source% -o %dest%
TOC of the extracted CD
Track | Start | Length | Start sector | End sector
---------------------------------------------------------
1 | 0:00.00 | 5:31.69 | 0 | 24893
2 | 5:31.69 | 4:50.13 | 24894 | 46656
3 | 10:22.07 | 2:14.00 | 46657 | 56706
4 | 12:36.07 | 6:31.60 | 56707 | 86091
5 | 19:07.67 | 2:14.10 | 86092 | 96151
6 | 21:22.02 | 3:49.25 | 96152 | 113351
7 | 25:11.27 | 5:07.20 | 113352 | 136396
8 | 30:18.47 | 4:12.66 | 136397 | 155362
9 | 34:31.38 | 4:57.05 | 155363 | 177642
10 | 39:28.43 | 6:41.56 | 177643 | 207773
11 | 46:10.24 | 2:10.40 | 207774 | 217563
12 | 48:20.64 | 6:09.04 | 217564 | 245242
Track 1
Filename D:\zzz\01 - Up And Down.wav
Pre-gap length 0:00:02.00
Peak level 96.6 %
Extraction speed 4.6 X
Track quality 100.0 %
Test CRC 97C5A8B7
Copy CRC 97C5A8B7
Track not present in AccurateRip database
Copy OK
Track 2
Filename D:\zzz\02 - Searching Souls.wav
Peak level 96.6 %
Extraction speed 4.6 X
Track quality 99.9 %
Test CRC 6E47F9F9
Copy CRC 6E47F9F9
Track not present in AccurateRip database
Copy OK
Track 3
Filename D:\zzz\03 - Black Cat.wav
Peak level 96.6 %
Extraction speed 4.8 X
Track quality 100.0 %
Test CRC 710C231A
Copy CRC 710C231A
Track not present in AccurateRip database
Copy OK
Track 4
Filename D:\zzz\04 - Vapor Burn.wav
Peak level 96.6 %
Extraction speed 6.0 X
Track quality 100.0 %
Test CRC F7F8DAC0
Copy CRC F7F8DAC0
Track not present in AccurateRip database
Copy OK
Track 5
Filename D:\zzz\05 - This Or That.wav
Peak level 96.6 %
Extraction speed 4.5 X
Track quality 99.9 %
Test CRC C07902DB
Copy CRC C07902DB
Track not present in AccurateRip database
Copy OK
Track 6
Filename D:\zzz\06 - Dark Matter.wav
Peak level 96.6 %
Extraction speed 6.2 X
Track quality 100.0 %
Test CRC 2A67B9B1
Copy CRC 2A67B9B1
Track not present in AccurateRip database
Copy OK
Track 7
Filename D:\zzz\07 - Ugly Beauty.wav
Peak level 96.6 %
Extraction speed 6.7 X
Track quality 100.0 %
Test CRC C6B663AE
Copy CRC C6B663AE
Track not present in AccurateRip database
Copy OK
Track 8
Filename D:\zzz\08 - The Harvest.wav
Peak level 96.6 %
Extraction speed 6.8 X
Track quality 100.0 %
Test CRC 556BDCBB
Copy CRC 556BDCBB
Track not present in AccurateRip database
Copy OK
Track 9
Filename D:\zzz\09 - Nono.wav
Peak level 96.6 %
Extraction speed 7.2 X
Track quality 100.0 %
Test CRC 05580A19
Copy CRC 05580A19
Track not present in AccurateRip database
Copy OK
Track 10
Filename D:\zzz\10 - Littleton.wav
Peak level 96.6 %
Extraction speed 7.8 X
Track quality 100.0 %
Test CRC FA24B1D6
Copy CRC FA24B1D6
Track not present in AccurateRip database
Copy OK
Track 11
Filename D:\zzz\11 - My Old Kentucky Home.wav
Peak level 96.6 %
Extraction speed 6.8 X
Track quality 100.0 %
Test CRC 904BC1FC
Copy CRC 904BC1FC
Track not present in AccurateRip database
Copy OK
Track 12
Filename D:\zzz\12 - Spiritual Blessing.wav
Peak level 96.6 %
Extraction speed 8.2 X
Track quality 100.0 %
Test CRC F41C6CB6
Copy CRC F41C6CB6
Track not present in AccurateRip database
Copy OK
None of the tracks are present in the AccurateRip database
No errors occurred
End of status report
==== Log checksum BC2EB93C607DE298672DD2ED13406EE4CBB56B5243A1C64B6C116ADA417181F2 ====
 
Содержание индексной карты (.CUE)
REM GENRE "Avant-Garde Jazz"
REM DATE 2002
REM DISCID 950CC50C
REM COMMENT "ExactAudioCopy v1.0b3"
PERFORMER "Johnnie Valentino"
TITLE "Searching Souls"
FILE "01 - Up And Down.wav" WAVE
TRACK 01 AUDIO
TITLE "Up And Down"
PERFORMER "Johnnie Valentino"
INDEX 01 00:00:00
FILE "02 - Searching Souls.wav" WAVE
TRACK 02 AUDIO
TITLE "Searching Souls"
PERFORMER "Johnnie Valentino"
INDEX 01 00:00:00
FILE "03 - Black Cat.wav" WAVE
TRACK 03 AUDIO
TITLE "Black Cat"
PERFORMER "Johnnie Valentino"
INDEX 01 00:00:00
FILE "04 - Vapor Burn.wav" WAVE
TRACK 04 AUDIO
TITLE "Vapor Burn"
PERFORMER "Johnnie Valentino"
INDEX 01 00:00:00
FILE "05 - This Or That.wav" WAVE
TRACK 05 AUDIO
TITLE "This Or That"
PERFORMER "Johnnie Valentino"
INDEX 01 00:00:00
FILE "06 - Dark Matter.wav" WAVE
TRACK 06 AUDIO
TITLE "Dark Matter"
PERFORMER "Johnnie Valentino"
INDEX 01 00:00:00
FILE "07 - Ugly Beauty.wav" WAVE
TRACK 07 AUDIO
TITLE "Ugly Beauty"
PERFORMER "Johnnie Valentino"
INDEX 01 00:00:00
FILE "08 - The Harvest.wav" WAVE
TRACK 08 AUDIO
TITLE "The Harvest"
PERFORMER "Johnnie Valentino"
INDEX 01 00:00:00
FILE "09 - Nono.wav" WAVE
TRACK 09 AUDIO
TITLE "Nono"
PERFORMER "Johnnie Valentino"
INDEX 01 00:00:00
FILE "10 - Littleton.wav" WAVE
TRACK 10 AUDIO
TITLE "Littleton"
PERFORMER "Johnnie Valentino"
INDEX 01 00:00:00
FILE "11 - My Old Kentucky Home.wav" WAVE
TRACK 11 AUDIO
TITLE "My Old Kentucky Home"
PERFORMER "Johnnie Valentino"
INDEX 01 00:00:00
FILE "12 - Spiritual Blessing.wav" WAVE
TRACK 12 AUDIO
TITLE "Spiritual Blessing"
PERFORMER "Johnnie Valentino"
INDEX 01 00:00:00
 
Лог проверки качества
d:\>d:\aucdtect -d/-m0 d:\zzz\*.wav
auCDtect: CD records authenticity detector, version 0.8.2
Copyright (c) 2004 Oleg Berngardt. All rights reserved.
Copyright (c) 2004 Alexander Djourik. All rights reserved.
------------------------------------------------------------
Processing file: [01. Up And Down.wav]
------------------------------------------------------------
This track looks like CDDA with probability 100%
------------------------------------------------------------
Processing file: [02. Searching Souls.wav]
------------------------------------------------------------
This track looks like CDDA with probability 100%
------------------------------------------------------------
Processing file: [03. Black Cat.wav]
------------------------------------------------------------
This track looks like CDDA with probability 100%
------------------------------------------------------------
Processing file: [04. Vapor Burn.wav]
------------------------------------------------------------
This track looks like CDDA with probability 100%
------------------------------------------------------------
Processing file: [05. This Or That.wav]
------------------------------------------------------------
This track looks like CDDA with probability 100%
------------------------------------------------------------
Processing file: [06. Dark Matter.wav]
------------------------------------------------------------
This track looks like CDDA with probability 99%
------------------------------------------------------------
Processing file: [07. Ugly Beauty.wav]
------------------------------------------------------------
This track looks like CDDA with probability 100%
------------------------------------------------------------
Processing file: [08. The Harvest.wav]
------------------------------------------------------------
This track looks like CDDA with probability 100%
------------------------------------------------------------
Processing file: [09. Nono.wav]
------------------------------------------------------------
This track looks like CDDA with probability 100%
------------------------------------------------------------
Processing file: [10. Littleton.wav]
------------------------------------------------------------
This track looks like CDDA with probability 100%
------------------------------------------------------------
Processing file: [11. My Old Kentucky Home.wav]
------------------------------------------------------------
This track looks like CDDA with probability 99%
------------------------------------------------------------
Processing file: [12. Spiritual Blessing.wav]
------------------------------------------------------------
This track looks like CDDA with probability 100%
------------------------------------------------------------
Final Conclusion:
------------------------------------------------------------
These tracks looks like CDDA with probability 100%
Доп. информация:
 
Album Info & AMG Review
Recorded & mixed at J&M Studios NY and LA spring 2000.
Mastered by: Rich Breen
Cover design: Jeff Atherton & Vinny Golia
Produced by Johnnie Valentino, co-produced by Mick Rossi
Johnnie Valentino savors slow, brooding sonorities, the sort that evoke dark, desperate images. He has extraordinary taste in picking musicians, as he appears here with top-flight players such as trumpeter Wadada Leo Smith and reedist Vinny Golia, who is heard exclusively on clarinet and bass clarinet. The guitarist-leader wrote virtually all the pieces, played by several combinations of musicians, the best of which include Smith, who is in top form throughout. The changing of the guard produces a bit of discontinuity, although -- to be fair -- the quality of performance remains on a consistently high plane. Valentino breathes new life into two warhorses, Monk's "Ugly Beauty" and Stephen Foster's "My Old Kentucky Home," the former of which is given the guitarist's desultory treatment, and the latter of which is brilliantly transmogrified into a funeral dirge. Some of the tunes, such as "Spiritual Blessing," languish a bit too long, and the blue hue that affects the entire album sometimes does get somewhat tiring. Valentino, though, is an original voice with strong ideas of where he is going. He deserves to be performing with a regular lineup, one that appreciates his vision and injects it with a group personality. His guitar solos reveal a superior talent that merits nurturing. A close listening reveals numerous fine moments marked by real sophistication, a rare commodity.
 
Состав
Johnnie Valentino: guitar (1-7,9,10,11,12), mandolin (8)
Vinny Golia: clarinet (1), bass clarinet (2,10)
Rick Rossi: bass clarinet (1,4)
Trevor Ware: bass (1,3,4,5,6,7,8,9,10,12)
Mick Rossi: drums (1,2,3,4,6,7,8,9,10,11,12), piano (2,4,6)
Wadada Leo Smith: trumpet (2,5,8,10)
Kermit Driscoll: bass (2,11)
Jimmy DiJulio: drums (5)
Andy Laster: clarinet (6,9,11)
Billy Drewes: clarinet (7,12)
All compositions written by Johnnie Valentino unless noted.
По всем вопросам пишите личное сообщение пользователю M0p94ok.
19:01
215
Нет комментариев. Ваш будет первым!