Вы используете незарегистрированную версию компонента "Вкладки"!

Поиск

(Avant-Garde, Modern Creative, Sound Aspects) Andreas Willers (w/ Louis Sclavis, Gabriele Hasler, Martin Lillich, Michael Clifton) - The Private Ear - 1990, FLAC (tracks+.cue), lossless

(Avant-Garde, Modern Creative, Sound Aspects) Andreas Willers (w/ Louis Sclavis, Gabriele Hasler, Martin Lillich, Michael Clifton) - The Private Ear - 1990, FLAC (tracks+.cue), lossless
Треклист:
Andreas Willers / The Private Ear
Жанр: Avant-Garde, Modern Creative, Sound Aspects
Страна-производитель диска: Germany
Год издания: 1990
Издатель (лейбл): Sound Aspects
Номер по каталогу: SAS CD 034
Аудиокодек: FLAC (*.flac)
Тип рипа: tracks+.cue
Битрейт аудио: lossless
Продолжительность: 50:29
Источник (релизер): Max Monteiro
Наличие сканов в содержимом раздачи: да
Треклист:
1. The Private Ear 3:55
2. Left Over Right 7:46
3. Late News 8:41
4. Leaving Us 8:29
5. Petite Theatre* 5:47
6. The Storm / Around the Fish / Berlin by the Sea 10:36
7. True Tune** 5:14
All compositions by Andreas Willers.
Recorded February-May 1989 at BIT Studio, West Berlin.
Andreas Willers – Guitars and Electronic Percussion
Louis Sclavis – Clarinets and Soprano Saxophone
Gabriele Hasler – Voice
Martin Lillich – Bass *, Shaker**
Michael Clifton – Cymbals*
 
Лог создания рипа
Exact Audio Copy V1.0 beta 3 from 29. August 2011
EAC extraction logfile from 9. October 2013, 12:46
Andreas Willers / The Private Ear
Used drive : SlimtypeeNAU508 5 Adapter: 1 ID: 0
Read mode : Secure
Utilize accurate stream : Yes
Defeat audio cache : Yes
Make use of C2 pointers : No
Read offset correction : 6
Overread into Lead-In and Lead-Out : No
Fill up missing offset samples with silence : Yes
Delete leading and trailing silent blocks : No
Null samples used in CRC calculations : Yes
Used interface : Native Win32 interface for Win NT & 2000
Gap handling : Appended to previous track
Used output format : User Defined Encoder
Selected bitrate : 768 kBit/s
Quality : High
Add ID3 tag : No
Command line compressor : C:\Program Files (x86)\Exact Audio Copy\Flac\flac.exe
Additional command line options : -8 -V -T "ARTIST=%artist%" -T "TITLE=%title%" -T "ALBUM=%albumtitle%" -T "DATE=%year%" -T "TRACKNUMBER=%tracknr%" -T "GENRE=%genre%" -T "PERFORMER=%albuminterpret%" -T "COMPOSER=%composer%" %haslyrics%--tag-from-file=LYRICS="%lyricsfile%"%haslyrics% -T "ALBUMARTIST=%albumartist%" -T "DISCNUMBER=%cdnumber%" -T "TOTALDISCS=%totalcds%" -T "TOTALTRACKS=%numtracks%" -T "COMMENT=%comment%" %source% -o %dest%
TOC of the extracted CD
Track | Start | Length | Start sector | End sector
---------------------------------------------------------
1 | 0:00.32 | 3:55.25 | 32 | 17681
2 | 3:55.57 | 7:46.00 | 17682 | 52631
3 | 11:41.57 | 8:41.25 | 52632 | 91731
4 | 20:23.07 | 8:28.50 | 91732 | 129881
5 | 28:51.57 | 5:47.25 | 129882 | 155931
6 | 34:39.07 | 10:36.25 | 155932 | 203656
7 | 45:15.32 | 5:13.40 | 203657 | 227171
Track 1
Filename C:\EAC rips\01 - The Private Ear.wav
Pre-gap length 0:00:02.32
Peak level 83.8 %
Extraction speed 1.0 X
Track quality 100.0 %
Test CRC BD95A28C
Copy CRC BD95A28C
Accurately ripped (confidence 1) [E5726495] (AR v2)
Copy OK
Track 2
Filename C:\EAC rips\02 - Left Over Right.wav
Pre-gap length 0:00:02.00
Peak level 99.9 %
Extraction speed 1.3 X
Track quality 100.0 %
Test CRC 8F75EBAC
Copy CRC 8F75EBAC
Accurately ripped (confidence 1) [B73F4B92] (AR v2)
Copy OK
Track 3
Filename C:\EAC rips\03 - Late News.wav
Pre-gap length 0:00:02.00
Peak level 86.1 %
Extraction speed 1.5 X
Track quality 100.0 %
Test CRC D0B27E82
Copy CRC D0B27E82
Accurately ripped (confidence 1) [93DB8946] (AR v2)
Copy OK
Track 4
Filename C:\EAC rips\04 - Leaving Us.wav
Pre-gap length 0:00:00.52
Peak level 69.4 %
Extraction speed 1.7 X
Track quality 100.0 %
Test CRC C26368FF
Copy CRC C26368FF
Accurately ripped (confidence 1) [C3DB82B9] (AR v2)
Copy OK
Track 5
Filename C:\EAC rips\05 - Petite Theatre.wav
Pre-gap length 0:00:01.25
Peak level 79.6 %
Extraction speed 1.8 X
Track quality 100.0 %
Test CRC A8BB089D
Copy CRC A8BB089D
Accurately ripped (confidence 1) [188C085A] (AR v2)
Copy OK
Track 6
Filename C:\EAC rips\06 - The Storm - Around the Fish - Berlin by the Sea.wav
Pre-gap length 0:00:01.57
Peak level 94.1 %
Extraction speed 2.1 X
Track quality 100.0 %
Test CRC 7AC7A634
Copy CRC 7AC7A634
Accurately ripped (confidence 1) [C1172987] (AR v2)
Copy OK
Track 7
Filename C:\EAC rips\07 - True Tune.wav
Pre-gap length 0:00:02.50
Peak level 84.4 %
Extraction speed 2.1 X
Track quality 100.0 %
Test CRC 55E77590
Copy CRC 55E77590
Accurately ripped (confidence 1) [8963EE0C] (AR v2)
Copy OK
All tracks accurately ripped
No errors occurred
End of status report
---- CUETools DB Plugin V2.1.4
[CTDB TOCID: s9CdrF8mx9W5I0BLR_dQA7axafY-] disk not present in database
Submit result: s9CdrF8mx9W5I0BLR_dQA7axafY- has been uploaded
==== Log checksum AFA744DCA70A3E23262A721BCA5DF2C529A51529FEBACF4D57576BB1AEC9ED9E ====
 
Содержание индексной карты (.CUE)
REM GENRE Jazz
REM DATE 1990
REM DISCID 4C0BD407
REM COMMENT "ExactAudioCopy v1.0b3"
PERFORMER "Andreas Willers"
TITLE "The Private Ear"
FILE "01 - The Private Ear.wav" WAVE
TRACK 01 AUDIO
TITLE "The Private Ear"
PERFORMER "Andreas Willers"
PREGAP 00:00:32
INDEX 01 00:00:00
TRACK 02 AUDIO
TITLE "Left Over Right"
PERFORMER "Andreas Willers"
INDEX 00 03:53:25
FILE "02 - Left Over Right.wav" WAVE
INDEX 01 00:00:00
TRACK 03 AUDIO
TITLE "Late News"
PERFORMER "Andreas Willers"
INDEX 00 07:44:00
FILE "03 - Late News.wav" WAVE
INDEX 01 00:00:00
TRACK 04 AUDIO
TITLE "Leaving Us"
PERFORMER "Andreas Willers"
INDEX 00 08:40:48
FILE "04 - Leaving Us.wav" WAVE
INDEX 01 00:00:00
TRACK 05 AUDIO
TITLE "Petite Theatre"
PERFORMER "Andreas Willers"
INDEX 00 08:27:25
FILE "05 - Petite Theatre.wav" WAVE
INDEX 01 00:00:00
TRACK 06 AUDIO
TITLE "The Storm / Around the Fish / Berlin by the Sea"
PERFORMER "Andreas Willers"
INDEX 00 05:45:43
FILE "06 - The Storm - Around the Fish - Berlin by the Sea.wav" WAVE
INDEX 01 00:00:00
TRACK 07 AUDIO
TITLE "True Tune"
PERFORMER "Andreas Willers"
INDEX 00 10:33:50
FILE "07 - True Tune.wav" WAVE
INDEX 01 00:00:00
По всем вопросам пишите личное сообщение пользователю M0p94ok.
19:02
166
Нет комментариев. Ваш будет первым!