Вы используете незарегистрированную версию компонента "Вкладки"!

Поиск

(Free Improvisation, Avant-Garde, Post-Bop, Sketch Music) Anthony Cox - That & This - 2002, FLAC (tracks+.cue), lossless

(Free Improvisation, Avant-Garde, Post-Bop, Sketch Music) Anthony Cox - That & This - 2002, FLAC (tracks+.cue), lossless
Треклист:
Anthony Cox / That & This
Жанр: Free Improvisation, Avant-Garde, Post-Bop
Страна-производитель диска: France
Год издания: 2002
Издатель (лейбл): Sketch Music
Номер по каталогу: SKE 333029
Аудиокодек: FLAC (*.flac)
Тип рипа: tracks+.cue
Битрейт аудио: lossless
Продолжительность: 43:46
Источник (релизер): Max Monteiro
Наличие сканов в содержимом раздачи: нет
Треклист:
01. Movement 3:12
02. Joy 2:03
03. Boulder Car 2:56
04. Bats 2:10
05. Midwest Playboy 2:45
06. Ballad One 2:10
07. The Protector 3:32
08. Marketplace 2:37
09. Rios 2:49
10. Treaty 3:42
11. Cadence 2:39
12. New Point of View 2:10
13. Run 1:24
14. Ronin 3:13
15. Mr. Cox Hight School Band Director 3:57
16.Opening 2:26
All compositions by Anthony Cox except « Rios » by David Friedman, Dino Saluzzi & Anthony Cox. All titles are improvisations except #7, 9 and 15.
Recorded June 1st 2002.
Anthony Cox – Double Bass
 
Лог создания рипа
Exact Audio Copy V1.0 beta 3 from 29. August 2011
EAC extraction logfile from 29. September 2013, 17:27
Anthony Cox / That & This
Used drive : SlimtypeeNAU508 5 Adapter: 1 ID: 0
Read mode : Secure
Utilize accurate stream : Yes
Defeat audio cache : Yes
Make use of C2 pointers : No
Read offset correction : 6
Overread into Lead-In and Lead-Out : No
Fill up missing offset samples with silence : Yes
Delete leading and trailing silent blocks : No
Null samples used in CRC calculations : Yes
Used interface : Native Win32 interface for Win NT & 2000
Gap handling : Appended to previous track
Used output format : User Defined Encoder
Selected bitrate : 768 kBit/s
Quality : High
Add ID3 tag : No
Command line compressor : C:\Program Files (x86)\Exact Audio Copy\Flac\flac.exe
Additional command line options : -8 -V -T "ARTIST=%artist%" -T "TITLE=%title%" -T "ALBUM=%albumtitle%" -T "DATE=%year%" -T "TRACKNUMBER=%tracknr%" -T "GENRE=%genre%" -T "PERFORMER=%albuminterpret%" -T "COMPOSER=%composer%" %haslyrics%--tag-from-file=LYRICS="%lyricsfile%"%haslyrics% -T "ALBUMARTIST=%albumartist%" -T "DISCNUMBER=%cdnumber%" -T "TOTALDISCS=%totalcds%" -T "TOTALTRACKS=%numtracks%" -T "COMMENT=%comment%" %source% -o %dest%
TOC of the extracted CD
Track | Start | Length | Start sector | End sector
---------------------------------------------------------
1 | 0:00.00 | 3:12.37 | 0 | 14436
2 | 3:12.37 | 2:02.48 | 14437 | 23634
3 | 5:15.10 | 2:56.30 | 23635 | 36864
4 | 8:11.40 | 2:10.17 | 36865 | 46631
5 | 10:21.57 | 2:44.50 | 46632 | 58981
6 | 13:06.32 | 2:10.15 | 58982 | 68746
7 | 15:16.47 | 3:32.20 | 68747 | 84666
8 | 18:48.67 | 2:37.28 | 84667 | 96469
9 | 21:26.20 | 2:49.25 | 96470 | 109169
10 | 24:15.45 | 3:42.37 | 109170 | 125856
11 | 27:58.07 | 2:38.50 | 125857 | 137756
12 | 30:36.57 | 2:10.30 | 137757 | 147536
13 | 32:47.12 | 1:23.45 | 147537 | 153806
14 | 34:10.57 | 3:13.20 | 153807 | 168301
15 | 37:24.02 | 3:56.45 | 168302 | 186046
16 | 41:20.47 | 2:25.55 | 186047 | 196976
Track 1
Filename C:\EAC rips\01 - Movement.wav
Pre-gap length 0:00:02.00
Peak level 99.9 %
Extraction speed 1.9 X
Track quality 100.0 %
Test CRC 7F2382E0
Copy CRC 7F2382E0
Accurately ripped (confidence 4) [402F1CF7] (AR v1)
Copy OK
Track 2
Filename C:\EAC rips\02 - Joy.wav
Peak level 84.1 %
Extraction speed 1.9 X
Track quality 100.0 %
Test CRC 141E754F
Copy CRC 141E754F
Accurately ripped (confidence 4) [0CE30AD8] (AR v1)
Copy OK
Track 3
Filename C:\EAC rips\03 - Boulder Car.wav
Peak level 98.0 %
Extraction speed 2.2 X
Track quality 100.0 %
Test CRC 3FF0A0AC
Copy CRC 3FF0A0AC
Accurately ripped (confidence 4) [F68D55D5] (AR v1)
Copy OK
Track 4
Filename C:\EAC rips\04 - Bats.wav
Peak level 98.0 %
Extraction speed 2.2 X
Track quality 100.0 %
Test CRC B6B6171A
Copy CRC B6B6171A
Accurately ripped (confidence 4) [E8023F4E] (AR v1)
Copy OK
Track 5
Filename C:\EAC rips\05 - Midwest Playboy.wav
Peak level 98.0 %
Extraction speed 1.9 X
Track quality 99.9 %
Test CRC 7087206E
Copy CRC 7087206E
Accurately ripped (confidence 4) [CC0A791B] (AR v1)
Copy OK
Track 6
Filename C:\EAC rips\06 - Ballad One.wav
Peak level 87.3 %
Extraction speed 2.4 X
Track quality 100.0 %
Test CRC 2CCDCCCB
Copy CRC 2CCDCCCB
Accurately ripped (confidence 4) [26364A09] (AR v1)
Copy OK
Track 7
Filename C:\EAC rips\07 - The Protector.wav
Peak level 99.9 %
Extraction speed 2.8 X
Track quality 100.0 %
Test CRC C7220F1B
Copy CRC C7220F1B
Accurately ripped (confidence 4) [07F773D8] (AR v1)
Copy OK
Track 8
Filename C:\EAC rips\08 - Marketplace.wav
Peak level 98.0 %
Extraction speed 2.1 X
Track quality 99.9 %
Test CRC 09234766
Copy CRC 09234766
Accurately ripped (confidence 4) [3B87723B] (AR v1)
Copy OK
Track 9
Filename C:\EAC rips\09 - Rios.wav
Peak level 98.0 %
Extraction speed 2.2 X
Track quality 99.9 %
Test CRC FC0B9943
Copy CRC FC0B9943
Accurately ripped (confidence 4) [D399BBF6] (AR v1)
Copy OK
Track 10
Filename C:\EAC rips\10 - Treaty.wav
Peak level 98.0 %
Extraction speed 3.1 X
Track quality 100.0 %
Test CRC AF4FF028
Copy CRC AF4FF028
Accurately ripped (confidence 4) [A82E4114] (AR v1)
Copy OK
Track 11
Filename C:\EAC rips\11 - Cadence.wav
Peak level 99.9 %
Extraction speed 2.4 X
Track quality 99.9 %
Test CRC 15B82917
Copy CRC 15B82917
Accurately ripped (confidence 4) [00B8D2F3] (AR v1)
Copy OK
Track 12
Filename C:\EAC rips\12 - New Point of View.wav
Peak level 98.0 %
Extraction speed 3.0 X
Track quality 100.0 %
Test CRC FECF51DC
Copy CRC FECF51DC
Accurately ripped (confidence 4) [7EB6785F] (AR v1)
Copy OK
Track 13
Filename C:\EAC rips\13 - Run.wav
Peak level 82.5 %
Extraction speed 2.7 X
Track quality 100.0 %
Test CRC 10F344B9
Copy CRC 10F344B9
Accurately ripped (confidence 4) [CA2006CA] (AR v1)
Copy OK
Track 14
Filename C:\EAC rips\14 - Ronin.wav
Peak level 98.1 %
Extraction speed 3.4 X
Track quality 100.0 %
Test CRC AE20FEA4
Copy CRC AE20FEA4
Accurately ripped (confidence 4) [23BA93C3] (AR v1)
Copy OK
Track 15
Filename C:\EAC rips\15 - Mr. Cox High School Band Director.wav
Peak level 98.0 %
Extraction speed 3.6 X
Track quality 100.0 %
Test CRC CB573664
Copy CRC CB573664
Accurately ripped (confidence 4) [AB77DB57] (AR v1)
Copy OK
Track 16
Filename C:\EAC rips\16 - Opening.wav
Peak level 98.0 %
Extraction speed 2.6 X
Track quality 99.9 %
Test CRC CBB7A321
Copy CRC CBB7A321
Accurately ripped (confidence 4) [CF82C651] (AR v1)
Copy OK
All tracks accurately ripped
No errors occurred
End of status report
---- CUETools DB Plugin V2.1.4
[CTDB TOCID: pKEgqhwBgdaHih5FOj3vdWaEjR8-] disk not present in database
Submit result: Le serveur a commis une violation de protocole. Section=ResponseStatusLine
==== Log checksum 0D266EB8DA0EDAB328831E7323999DB6D07021E0D6CE0478C8C7E2CE31A19C45 ====
 
Содержание индексной карты (.CUE)
REM GENRE Jazz
REM DATE 2002
REM DISCID EB0A4210
REM COMMENT "ExactAudioCopy v1.0b3"
PERFORMER "Anthony Cox"
TITLE "That & This"
FILE "01 - Movement.wav" WAVE
TRACK 01 AUDIO
TITLE "Movement"
PERFORMER "Anthony Cox"
ISRC FR45R0200040
INDEX 01 00:00:00
FILE "02 - Joy.wav" WAVE
TRACK 02 AUDIO
TITLE "Joy"
PERFORMER "Anthony Cox"
ISRC FR45R0200041
INDEX 01 00:00:00
FILE "03 - Boulder Car.wav" WAVE
TRACK 03 AUDIO
TITLE "Boulder Car"
PERFORMER "Anthony Cox"
ISRC FR45R0200042
INDEX 01 00:00:00
FILE "04 - Bats.wav" WAVE
TRACK 04 AUDIO
TITLE "Bats"
PERFORMER "Anthony Cox"
ISRC FR45R0200043
INDEX 01 00:00:00
FILE "05 - Midwest Playboy.wav" WAVE
TRACK 05 AUDIO
TITLE "Midwest Playboy"
PERFORMER "Anthony Cox"
ISRC FR45R0200044
INDEX 01 00:00:00
FILE "06 - Ballad One.wav" WAVE
TRACK 06 AUDIO
TITLE "Ballad One"
PERFORMER "Anthony Cox"
ISRC FR45R0200045
INDEX 01 00:00:00
FILE "07 - The Protector.wav" WAVE
TRACK 07 AUDIO
TITLE "The Protector"
PERFORMER "Anthony Cox"
ISRC FR45R0200046
INDEX 01 00:00:00
FILE "08 - Marketplace.wav" WAVE
TRACK 08 AUDIO
TITLE "Marketplace"
PERFORMER "Anthony Cox"
ISRC FR45R0200047
INDEX 01 00:00:00
FILE "09 - Rios.wav" WAVE
TRACK 09 AUDIO
TITLE "Rios"
PERFORMER "Anthony Cox"
ISRC FR45R0200048
INDEX 01 00:00:00
FILE "10 - Treaty.wav" WAVE
TRACK 10 AUDIO
TITLE "Treaty"
PERFORMER "Anthony Cox"
ISRC FR45R0200049
INDEX 01 00:00:00
FILE "11 - Cadence.wav" WAVE
TRACK 11 AUDIO
TITLE "Cadence"
PERFORMER "Anthony Cox"
ISRC FR45R0200050
INDEX 01 00:00:00
FILE "12 - New Point of View.wav" WAVE
TRACK 12 AUDIO
TITLE "New Point of View"
PERFORMER "Anthony Cox"
ISRC FR45R0200051
INDEX 01 00:00:00
FILE "13 - Run.wav" WAVE
TRACK 13 AUDIO
TITLE "Run"
PERFORMER "Anthony Cox"
ISRC FR45R0200052
INDEX 01 00:00:00
FILE "14 - Ronin.wav" WAVE
TRACK 14 AUDIO
TITLE "Ronin"
PERFORMER "Anthony Cox"
ISRC FR45R0200053
INDEX 01 00:00:00
FILE "15 - Mr. Cox High School Band Director.wav" WAVE
TRACK 15 AUDIO
TITLE "Mr. Cox High School Band Director"
PERFORMER "Anthony Cox"
ISRC FR45R0200054
INDEX 01 00:00:00
FILE "16 - Opening.wav" WAVE
TRACK 16 AUDIO
TITLE "Opening"
PERFORMER "Anthony Cox"
ISRC FR45R0200055
INDEX 01 00:00:00
По всем вопросам пишите личное сообщение пользователю M0p94ok.
19:03
148
Нет комментариев. Ваш будет первым!