Вы используете незарегистрированную версию компонента "Вкладки"!

Поиск

(Free Jazz) The Sam Rivers Trio (Doug Mathews, Anthony Cole) - Firestorm - 2002, FLAC (image+.cue), lossless

(Free Jazz) The Sam Rivers Trio (Doug Mathews, Anthony Cole) - Firestorm - 2002, FLAC (image+.cue), lossless
Треклист:
The Sam Rivers Trio / Firestorm
Жанр: Free Jazz
Страна-производитель диска: US
Год издания: 2002
Издатель (лейбл): Rivbea Music Productions / RIVBEA SOUND
Номер по каталогу: 048285010222
Аудиокодек: FLAC (*.flac)
Тип рипа: image+.cue
Битрейт аудио: lossless
Продолжительность: 72:17
Источник (релизер): cd
Наличие сканов в содержимом раздачи: нет
Треклист:
1 Spark 6:36
2 Flame 5:32
3 Embers 3:15
4 Firestorm 11:55
5 Unity 4:49
6 Solace 5:35
7 Smoke 1:45
8 Nightfall 11:53
9 Dominant 5:02
10 Iris 3:53
11 Firewall 11:57
recording date:2000
 
Лог создания рипа
Exact Audio Copy V1.0 beta 2 from 29. April 2011
EAC extraction logfile from 13. October 2013, 17:12
Sam Rivers Trio / Firestorm
Used drive : Optiarc DVD RW AD-7170A Adapter: 0 ID: 0
Read mode : Secure
Utilize accurate stream : Yes
Defeat audio cache : Yes
Make use of C2 pointers : No
Read offset correction : 48
Overread into Lead-In and Lead-Out : No
Fill up missing offset samples with silence : Yes
Delete leading and trailing silent blocks : No
Null samples used in CRC calculations : Yes
Used interface : Native Win32 interface for Win NT & 2000
Used output format : User Defined Encoder
Selected bitrate : 320 kBit/s
Quality : High
Add ID3 tag : No
Command line compressor : C:\Program Files\Exact Audio Copy\Flac\flac.exe
Additional command line options : -V -8 -T "Date=%year%" -T "Genre=%genre%" %source%
TOC of the extracted CD
Track | Start | Length | Start sector | End sector
---------------------------------------------------------
1 | 0:00.00 | 6:36.66 | 0 | 29765
2 | 6:36.66 | 5:32.70 | 29766 | 54735
3 | 12:09.61 | 3:15.24 | 54736 | 69384
4 | 15:25.10 | 11:55.57 | 69385 | 123066
5 | 27:20.67 | 4:49.03 | 123067 | 144744
6 | 32:09.70 | 5:35.17 | 144745 | 169886
7 | 37:45.12 | 1:45.45 | 169887 | 177806
8 | 39:30.57 | 11:53.21 | 177807 | 231302
9 | 51:24.03 | 5:02.22 | 231303 | 253974
10 | 56:26.25 | 3:53.23 | 253975 | 271472
11 | 60:19.48 | 11:57.47 | 271473 | 325294
Range status and errors
Selected range
Filename K:\ЕАС\Sam Rivers Trio - Firestorm.wav
Peak level 100.0 %
Extraction speed 2.3 X
Range quality 99.9 %
Test CRC 10539563
Copy CRC 10539563
Copy OK
No errors occurred
AccurateRip summary
Track 1 accurately ripped (confidence 2) [8269612E] (AR v1)
Track 2 accurately ripped (confidence 2) [680BF61C] (AR v1)
Track 3 accurately ripped (confidence 2) [E93BD9EB] (AR v1)
Track 4 accurately ripped (confidence 2) [33AEB975] (AR v1)
Track 5 accurately ripped (confidence 2) [99DC7C72] (AR v1)
Track 6 accurately ripped (confidence 2) [EFD26C1C] (AR v1)
Track 7 accurately ripped (confidence 2) [28F9F087] (AR v1)
Track 8 accurately ripped (confidence 2) [96AC3964] (AR v1)
Track 9 accurately ripped (confidence 2) [F3CD11AD] (AR v1)
Track 10 accurately ripped (confidence 2) [E9BAAFAE] (AR v1)
Track 11 accurately ripped (confidence 2) [DEB475F8] (AR v1)
All tracks accurately ripped
End of status report
==== Log checksum C947D075E4CEED399548009802DF6C0E04C743E9964EFBDB47D92C67A1B01F9C ====
 
Содержание индексной карты (.CUE)
REM GENRE Jazz
REM DATE 2002
REM DISCID A010F10B
REM COMMENT "ExactAudioCopy v1.0b2"
PERFORMER "Sam Rivers Trio"
TITLE "Firestorm"
FILE "Sam Rivers Trio - Firestorm.flac" WAVE
TRACK 01 AUDIO
TITLE "Spark"
PERFORMER "Sam Rivers Trio"
ISRC 000000000000
INDEX 01 00:00:00
TRACK 02 AUDIO
TITLE "Flame"
PERFORMER "Sam Rivers Trio"
ISRC 000000000000
INDEX 00 06:33:66
INDEX 01 06:36:66
TRACK 03 AUDIO
TITLE "Embers"
PERFORMER "Sam Rivers Trio"
ISRC 000000000000
INDEX 00 12:07:61
INDEX 01 12:09:61
TRACK 04 AUDIO
TITLE "Firestorm"
PERFORMER "Sam Rivers Trio"
ISRC 000000000000
INDEX 00 15:22:10
INDEX 01 15:25:10
TRACK 05 AUDIO
TITLE "Unity"
PERFORMER "Sam Rivers Trio"
ISRC 000000000000
INDEX 00 27:16:67
INDEX 01 27:20:67
TRACK 06 AUDIO
TITLE "Solace"
PERFORMER "Sam Rivers Trio"
ISRC 000000000000
INDEX 00 32:06:70
INDEX 01 32:09:70
TRACK 07 AUDIO
TITLE "Smoke"
PERFORMER "Sam Rivers Trio"
ISRC 000000000000
INDEX 00 37:43:12
INDEX 01 37:45:12
TRACK 08 AUDIO
TITLE "Nightfall"
PERFORMER "Sam Rivers Trio"
ISRC 000000000000
INDEX 00 39:28:57
INDEX 01 39:30:57
TRACK 09 AUDIO
TITLE "Dominant"
PERFORMER "Sam Rivers Trio"
ISRC 000000000000
INDEX 00 51:22:03
INDEX 01 51:24:03
TRACK 10 AUDIO
TITLE "Iris"
PERFORMER "Sam Rivers Trio"
ISRC 000000000000
INDEX 00 56:24:25
INDEX 01 56:26:25
TRACK 11 AUDIO
TITLE "Firewall"
PERFORMER "Sam Rivers Trio"
ISRC 000000000000
INDEX 00 60:18:48
INDEX 01 60:19:48
 
Состав
Sam Rivers, tenor and soprano saxes, flute, piano, vocals;
Anthony Cole, drums, tenor sax, piano;
Doug Mathews, acoustic and electric basses, bass clarinet
По всем вопросам пишите личное сообщение пользователю M0p94ok.
19:03
191
Нет комментариев. Ваш будет первым!