Вы используете незарегистрированную версию компонента "Вкладки"!

Поиск

(Free Jazz, Post-Bop, Big Band, Nine Winds) Joey Sellers' Jazz Aggregation (w/ Billy Mintz, Bruce Fowler, Kim Richmond, Ken Filiano) - Something For Nothing - 1990, FLAC (tracks+.cue), lossless

(Free Jazz, Post-Bop, Big Band, Nine Winds) Joey Sellers' Jazz Aggregation (w/ Billy Mintz, Bruce Fowler, Kim Richmond, Ken Filiano) - Something For Nothing - 1990, FLAC (tracks+.cue), lossless
Треклист:
Joey Sellers' Jazz Aggregation / Something For Nothing
Жанр: Free Jazz, Post-Bop, Big Band, Nine Winds
Страна-производитель диска: US
Год издания: 1990
Издатель (лейбл): 9 Winds
Номер по каталогу: NWCD 0136
Страна: US
Аудиокодек: FLAC (*.flac)
Тип рипа: tracks+.cue
Битрейт аудио: lossless
Продолжительность: 71:11
Источник (релизер): свой фирменный диск
Наличие сканов в содержимом раздачи:
Треклист:
1. Canadian Bacon 15:46
2. American Standard 19:10
3. Jay-Gale 10:33
4. Ecclesiastes 11:58
5. Something For Nothing 13:28
 
Лог создания рипа
Exact Audio Copy V1.0 beta 3 from 29. August 2011
EAC extraction logfile from 6. October 2013, 15:45
Joey Sellers' Jazz Aggregation / Something For Nothing
Used drive : PIONEER DVD-RW DVR-115D Adapter: 0 ID: 0
Read mode : Secure
Utilize accurate stream : Yes
Defeat audio cache : Yes
Make use of C2 pointers : No
Read offset correction : 48
Overread into Lead-In and Lead-Out : No
Fill up missing offset samples with silence : Yes
Delete leading and trailing silent blocks : No
Null samples used in CRC calculations : Yes
Used interface : Installed external ASPI interface
Gap handling : Appended to previous track
Used output format : User Defined Encoder
Selected bitrate : 896 kBit/s
Quality : High
Add ID3 tag : No
Command line compressor : C:\Program Files\Exact Audio Copy\FLAC\FLAC.EXE
Additional command line options : -6 -V -T "ARTIST=%artist%" -T "TITLE=%title%" -T "ALBUM=%albumtitle%" -T "DATE=%year%" -T "TRACKNUMBER=%tracknr%" -T "GENRE=%genre%" -T "COMMENT=%comment%" -T "BAND=%albuminterpret%" -T "COMPOSER=%composer%" %haslyrics%--tag-from-file=LYRICS="%lyricsfile%"%haslyrics% -T "DISCNUMBER=%cdnumber%" -T "TOTALDISCS=%totalcds%" -T "TOTALTRACKS=%numtracks%" %hascover%--picture="%coverfile%"%hascover% %source% -o %dest%
TOC of the extracted CD
Track | Start | Length | Start sector | End sector
---------------------------------------------------------
1 | 0:00.00 | 15:50.00 | 0 | 71249
2 | 15:50.00 | 19:14.43 | 71250 | 157842
3 | 35:04.43 | 10:37.32 | 157843 | 205649
4 | 45:42.00 | 12:00.33 | 205650 | 259682
5 | 57:42.33 | 13:29.20 | 259683 | 320377
Track 1
Filename D:\zzz\01 - Canadian Bacon.wav
Pre-gap length 0:00:02.00
Peak level 89.1 %
Extraction speed 5.9 X
Track quality 100.0 %
Test CRC BB75C9C8
Copy CRC BB75C9C8
Accurately ripped (confidence 1) [F2AA5B82] (AR v1)
Copy OK
Track 2
Filename D:\zzz\02 - American Standard.wav
Pre-gap length 0:00:03.57
Peak level 85.4 %
Extraction speed 7.5 X
Track quality 100.0 %
Test CRC 39CC8E44
Copy CRC 39CC8E44
Accurately ripped (confidence 1) [64E0CDA6] (AR v1)
Copy OK
Track 3
Filename D:\zzz\03 - Jay-Gale.wav
Pre-gap length 0:00:03.65
Peak level 100.0 %
Extraction speed 8.0 X
Track quality 99.9 %
Test CRC 2BB907D2
Copy CRC 2BB907D2
Accurately ripped (confidence 1) [D4C332AF] (AR v1)
Copy OK
Track 4
Filename D:\zzz\04 - Ecclesiastes.wav
Pre-gap length 0:00:03.32
Peak level 100.0 %
Extraction speed 8.7 X
Track quality 99.9 %
Test CRC BD1DDD00
Copy CRC BD1DDD00
Accurately ripped (confidence 1) [48FD7AAD] (AR v1)
Copy OK
Track 5
Filename D:\zzz\05 - Something For Nothing.wav
Pre-gap length 0:00:02.10
Peak level 93.9 %
Extraction speed 9.3 X
Track quality 99.9 %
Test CRC 18A3517B
Copy CRC 18A3517B
Accurately ripped (confidence 1) [7DBAB5D5] (AR v1)
Copy OK
All tracks accurately ripped
No errors occurred
End of status report
==== Log checksum 0F696AD3050CEA56757F20EC3450DBA9CDA18CEEB61E51E3DDAB4B1DF2BCB92B ====
 
Содержание индексной карты (.CUE)
REM GENRE "Big Band"
REM DATE 1990
REM DISCID 3D10AF05
REM COMMENT "ExactAudioCopy v1.0b3"
PERFORMER "Joey Sellers' Jazz Aggregation"
TITLE "Something For Nothing"
FILE "01 - Canadian Bacon.wav" WAVE
TRACK 01 AUDIO
TITLE "Canadian Bacon"
PERFORMER "Joey Sellers' Jazz Aggregation"
INDEX 01 00:00:00
TRACK 02 AUDIO
TITLE "American Standard"
PERFORMER "Joey Sellers' Jazz Aggregation"
INDEX 00 15:46:18
FILE "02 - American Standard.wav" WAVE
INDEX 01 00:00:00
TRACK 03 AUDIO
TITLE "Jay-Gale"
PERFORMER "Joey Sellers' Jazz Aggregation"
INDEX 00 19:10:53
FILE "03 - Jay-Gale.wav" WAVE
INDEX 01 00:00:00
TRACK 04 AUDIO
TITLE "Ecclesiastes"
PERFORMER "Joey Sellers' Jazz Aggregation"
INDEX 00 10:34:00
FILE "04 - Ecclesiastes.wav" WAVE
INDEX 01 00:00:00
TRACK 05 AUDIO
TITLE "Something For Nothing"
PERFORMER "Joey Sellers' Jazz Aggregation"
INDEX 00 11:58:23
FILE "05 - Something For Nothing.wav" WAVE
INDEX 01 00:00:00
 
Лог проверки качества
d:\>d:\aucdtect -d/-m0 d:\zzz\*.wav
auCDtect: CD records authenticity detector, version 0.8.2
Copyright (c) 2004 Oleg Berngardt. All rights reserved.
Copyright (c) 2004 Alexander Djourik. All rights reserved.
------------------------------------------------------------
Processing file: [01. Canadian Bacon.wav]
------------------------------------------------------------
This track looks like CDDA with probability 100%
------------------------------------------------------------
Processing file: [02. American Standard.wav]
------------------------------------------------------------
This track looks like CDDA with probability 100%
------------------------------------------------------------
Processing file: [03. Jay-Gale.wav]
------------------------------------------------------------
This track looks like CDDA with probability 100%
------------------------------------------------------------
Processing file: [04. Ecclesiastes.wav]
------------------------------------------------------------
This track looks like CDDA with probability 100%
------------------------------------------------------------
Processing file: [05. Something For Nothing.wav]
------------------------------------------------------------
This track looks like CDDA with probability 100%
------------------------------------------------------------
Final Conclusion:
------------------------------------------------------------
These tracks looks like CDDA with probability 100%
Доп. информация:
 
Album Info
All music composed & arranged by Joey Sellers, Joey Sellers Music, BMI
Recorded "live" direct to digital 2 track, February 23, 1989, at Stagg Street Studio by Gary Denton.
Mastered by John Golden at K-Disk. Manufactured by American Helix.
Original photo by Bruce Stevens.
Cover by Ion Design, Vancouver, Canada.
 
Состав
Joey Sellers: trombone
Billy Mintz: drums
Kei Akagi: piano
Ken Filiano: bass
Kim Richmond: alto & sop. sax, flute, clarinet
John Schroeder: tenor & sop. sax, flute, clarinet
Rob Verdi: baritone sax, flute, bass clarinet
Greg Varlotta: trumpet, flugelhorn
Clay Jenkins: trumpet, flugelhorn
Alex Isles: trombone
Bruce Fowler: trombone
Danny Hemwall: bass trombone
По всем вопросам пишите личное сообщение пользователю M0p94ok.
18:55
149
Нет комментариев. Ваш будет первым!