Поиск

(Free Jazz, Free Improvisation) Gabor Gado - Lung-Gom-Pa - 2010, FLAC (tracks+.cue), lossless

(Free Jazz, Free Improvisation) Gabor Gado - Lung-Gom-Pa - 2010, FLAC (tracks+.cue), lossless
Gábor Gadó - Lung-Gom-Pa
Жанр: Free Jazz, Free Improvisation
Страна-производитель диска: Hungary
Год издания: 2010
Издатель (лейбл): BMC
Аудиокодек: FLAC (*.flac)
Тип рипа: tracks+.cue
Битрейт аудио: lossless
Продолжительность: 49:50
Источник (релизер): вата
Наличие сканов в содержимом раздачи: нет
Треклист:
1 Sekinah 5:06
2 Rubljov 1:00
3 Narrations 2:40
4 Bunan XVIi 5:53
5 Drepung 2:15
6 Lung-Gom-Pa 9:55
7 Se-Ra
8 Infra Voices From The Ultra Trumba: I: Immersion 5:56
9 Infra Voices From The Ultra Trumba: II: Faces 7:33
10 Infra Voices From The Ultra Trumba: III: Lila Amrit 5:32
 
Лог создания рипа
X Lossless Decoder version 20130602 (143.2)
XLD extraction logfile from 2013-06-12 11:13:13 +0400
Gábor Gadó / Lung-gom-pa
Used drive : HL-DT-ST DVDRW GX30N (revision RP09)
Media type : Pressed CD
Ripper mode : XLD Secure Ripper
Disable audio cache : OK for the drive with a cache less than 1375KiB
Make use of C2 pointers : NO
Read offset correction : 6
Max retry count : 100
Gap status : Analyzed, Appended (except HTOA)
TOC of the extracted CD
Track | Start | Length | Start sector | End sector
---------------------------------------------------------
1 | 00:00:00 | 05:06:13 | 0 | 22962
2 | 05:06:13 | 01:00:38 | 22963 | 27500
3 | 06:06:51 | 02:40:46 | 27501 | 39546
4 | 08:47:22 | 05:53:23 | 39547 | 66044
5 | 14:40:45 | 02:15:18 | 66045 | 76187
6 | 16:55:63 | 09:55:42 | 76188 | 120854
7 | 26:51:30 | 03:55:38 | 120855 | 138517
8 | 30:46:68 | 05:56:50 | 138518 | 165267
9 | 36:43:43 | 07:34:23 | 165268 | 199340
10 | 44:17:66 | 05:32:57 | 199341 | 224297
AccurateRip Summary
Disc not found in AccurateRip DB.
All Tracks
Album gain : -1.65 dB
Peak : 0.992371
Statistics
Read error : 0
Jitter error (maybe fixed) : 0
Retry sector count : 0
Damaged sector count : 0
Track 01
Filename : /Users/anch/Music/FLAC/Gabor Gado - 2010 - Lung-gom-pa [MP3 320]/01 - Sekinah.mp3
/Users/anch/Music/FLAC/Gabor Gado - 2010 - Lung-gom-pa [MP3 V0]/01 - Sekinah.mp3
/Users/anch/Music/FLAC/Gabor Gado - 2010 - Lung-gom-pa [FLAC]/01 - Sekinah.flac
Pre-gap length : 00:02:00
Track gain : -0.60 dB
Peak : 0.941986
CRC32 hash (test run) : 71C6395F
CRC32 hash : 71C6395F
CRC32 hash (skip zero) : 60E22BB1
AccurateRip v1 signature : 26D698F0
AccurateRip v2 signature : B1753D0A
->Track not present in AccurateRip database.
Statistics
Read error : 0
Jitter error (maybe fixed) : 0
Retry sector count : 0
Damaged sector count : 0
Track 02
Filename : /Users/anch/Music/FLAC/Gabor Gado - 2010 - Lung-gom-pa [MP3 320]/02 - Rubljov.mp3
/Users/anch/Music/FLAC/Gabor Gado - 2010 - Lung-gom-pa [MP3 V0]/02 - Rubljov.mp3
/Users/anch/Music/FLAC/Gabor Gado - 2010 - Lung-gom-pa [FLAC]/02 - Rubljov.flac
Track gain : 11.47 dB
Peak : 0.282715
CRC32 hash (test run) : BF436651
CRC32 hash : BF436651
CRC32 hash (skip zero) : 31CA0E4C
AccurateRip v1 signature : 7F19A2D0
AccurateRip v2 signature : CAEDAA7C
->Track not present in AccurateRip database.
Statistics
Read error : 0
Jitter error (maybe fixed) : 0
Retry sector count : 0
Damaged sector count : 0
Track 03
Filename : /Users/anch/Music/FLAC/Gabor Gado - 2010 - Lung-gom-pa [MP3 320]/03 - Narrations.mp3
/Users/anch/Music/FLAC/Gabor Gado - 2010 - Lung-gom-pa [MP3 V0]/03 - Narrations.mp3
/Users/anch/Music/FLAC/Gabor Gado - 2010 - Lung-gom-pa [FLAC]/03 - Narrations.flac
Track gain : 2.65 dB
Peak : 0.945618
CRC32 hash (test run) : B202AE81
CRC32 hash : B202AE81
CRC32 hash (skip zero) : 7E5FA2E3
AccurateRip v1 signature : 83156973
AccurateRip v2 signature : 9FE3ABDF
->Track not present in AccurateRip database.
Statistics
Read error : 0
Jitter error (maybe fixed) : 0
Retry sector count : 0
Damaged sector count : 0
Track 04
Filename : /Users/anch/Music/FLAC/Gabor Gado - 2010 - Lung-gom-pa [MP3 320]/04 - Bunan XVII.mp3
/Users/anch/Music/FLAC/Gabor Gado - 2010 - Lung-gom-pa [MP3 V0]/04 - Bunan XVII.mp3
/Users/anch/Music/FLAC/Gabor Gado - 2010 - Lung-gom-pa [FLAC]/04 - Bunan XVII.flac
Track gain : -2.84 dB
Peak : 0.992279
CRC32 hash (test run) : 0DFD327D
CRC32 hash : 0DFD327D
CRC32 hash (skip zero) : B8601E48
AccurateRip v1 signature : 97F36368
AccurateRip v2 signature : A267AE1E
->Track not present in AccurateRip database.
Statistics
Read error : 0
Jitter error (maybe fixed) : 0
Retry sector count : 0
Damaged sector count : 0
Track 05
Filename : /Users/anch/Music/FLAC/Gabor Gado - 2010 - Lung-gom-pa [MP3 320]/05 - Drepung.mp3
/Users/anch/Music/FLAC/Gabor Gado - 2010 - Lung-gom-pa [MP3 V0]/05 - Drepung.mp3
/Users/anch/Music/FLAC/Gabor Gado - 2010 - Lung-gom-pa [FLAC]/05 - Drepung.flac
Pre-gap length : 00:10:27
Track gain : -2.38 dB
Peak : 0.992188
CRC32 hash (test run) : 1476515F
CRC32 hash : 1476515F
CRC32 hash (skip zero) : 4B01B601
AccurateRip v1 signature : 0430DAD0
AccurateRip v2 signature : B345A303
->Track not present in AccurateRip database.
Statistics
Read error : 0
Jitter error (maybe fixed) : 0
Retry sector count : 0
Damaged sector count : 0
Track 06
Filename : /Users/anch/Music/FLAC/Gabor Gado - 2010 - Lung-gom-pa [MP3 320]/06 - Lung-gom-pa.mp3
/Users/anch/Music/FLAC/Gabor Gado - 2010 - Lung-gom-pa [MP3 V0]/06 - Lung-gom-pa.mp3
/Users/anch/Music/FLAC/Gabor Gado - 2010 - Lung-gom-pa [FLAC]/06 - Lung-gom-pa.flac
Track gain : -2.88 dB
Peak : 0.992371
CRC32 hash (test run) : 4BF151CE
CRC32 hash : 4BF151CE
CRC32 hash (skip zero) : E44C3EF7
AccurateRip v1 signature : 80D9D1C6
AccurateRip v2 signature : F42E8A93
->Track not present in AccurateRip database.
Statistics
Read error : 0
Jitter error (maybe fixed) : 0
Retry sector count : 0
Damaged sector count : 0
Track 07
Filename : /Users/anch/Music/FLAC/Gabor Gado - 2010 - Lung-gom-pa [MP3 320]/07 - Se-ra.mp3
/Users/anch/Music/FLAC/Gabor Gado - 2010 - Lung-gom-pa [MP3 V0]/07 - Se-ra.mp3
/Users/anch/Music/FLAC/Gabor Gado - 2010 - Lung-gom-pa [FLAC]/07 - Se-ra.flac
Track gain : -0.28 dB
Peak : 0.992249
CRC32 hash (test run) : 36F83FAE
CRC32 hash : 36F83FAE
CRC32 hash (skip zero) : 777529D0
AccurateRip v1 signature : AC6DBE65
AccurateRip v2 signature : FB3B85C8
->Track not present in AccurateRip database.
Statistics
Read error : 0
Jitter error (maybe fixed) : 0
Retry sector count : 0
Damaged sector count : 0
Track 08
Filename : /Users/anch/Music/FLAC/Gabor Gado - 2010 - Lung-gom-pa [MP3 320]/08 - Infra Voices From the Ultra Trumba I. Immersion.mp3
/Users/anch/Music/FLAC/Gabor Gado - 2010 - Lung-gom-pa [MP3 V0]/08 - Infra Voices From the Ultra Trumba I. Immersion.mp3
/Users/anch/Music/FLAC/Gabor Gado - 2010 - Lung-gom-pa [FLAC]/08 - Infra Voices From the Ultra Trumba I. Immersion.flac
Pre-gap length : 00:15:38
Track gain : 4.52 dB
Peak : 0.992310
CRC32 hash (test run) : A7CBE23C
CRC32 hash : A7CBE23C
CRC32 hash (skip zero) : D00E7935
AccurateRip v1 signature : 5BED92AA
AccurateRip v2 signature : 77A7D470
->Track not present in AccurateRip database.
Statistics
Read error : 0
Jitter error (maybe fixed) : 0
Retry sector count : 0
Damaged sector count : 0
Track 09
Filename : /Users/anch/Music/FLAC/Gabor Gado - 2010 - Lung-gom-pa [MP3 320]/09 - Infra Voices From the Ultra Trumba II. Faces.mp3
/Users/anch/Music/FLAC/Gabor Gado - 2010 - Lung-gom-pa [MP3 V0]/09 - Infra Voices From the Ultra Trumba II. Faces.mp3
/Users/anch/Music/FLAC/Gabor Gado - 2010 - Lung-gom-pa [FLAC]/09 - Infra Voices From the Ultra Trumba II. Faces.flac
Track gain : 0.02 dB
Peak : 0.987976
CRC32 hash (test run) : 45812F59
CRC32 hash : 45812F59
CRC32 hash (skip zero) : 4C171645
AccurateRip v1 signature : D2A3B022
AccurateRip v2 signature : C9BD6211
->Track not present in AccurateRip database.
Statistics
Read error : 0
Jitter error (maybe fixed) : 0
Retry sector count : 0
Damaged sector count : 0
Track 10
Filename : /Users/anch/Music/FLAC/Gabor Gado - 2010 - Lung-gom-pa [MP3 320]/10 - Infra Voices From the Ultra Trumba III. Lila Amrit.mp3
/Users/anch/Music/FLAC/Gabor Gado - 2010 - Lung-gom-pa [MP3 V0]/10 - Infra Voices From the Ultra Trumba III. Lila Amrit.mp3
/Users/anch/Music/FLAC/Gabor Gado - 2010 - Lung-gom-pa [FLAC]/10 - Infra Voices From the Ultra Trumba III. Lila Amrit.flac
Track gain : -2.50 dB
Peak : 0.991882
CRC32 hash (test run) : 3037BE6B
CRC32 hash : 3037BE6B
CRC32 hash (skip zero) : 4FAE15A9
AccurateRip v1 signature : BC36E540
AccurateRip v2 signature : 2D9B3582
->Track not present in AccurateRip database.
Statistics
Read error : 0
Jitter error (maybe fixed) : 0
Retry sector count : 0
Damaged sector count : 0
No errors occurred
End of status report
 
Содержание индексной карты (.CUE)
TITLE "Lung-gom-pa"
PERFORMER "Gábor Gadó"
REM GENRE "Jazz"
REM DATE "2010"
REM DISCNUMBER 1
REM TOTALDISCS 1
REM DISCID 880BAE0A
REM REPLAYGAIN_ALBUM_GAIN -1.65 dB
REM REPLAYGAIN_ALBUM_PEAK 0.992371
FILE "01 - Sekinah.flac" WAVE
TRACK 01 AUDIO
TITLE "Sekinah"
PERFORMER "Gábor Gadó"
SONGWRITER "Gábor Gadó"
ISRC HUA150815401
REM REPLAYGAIN_TRACK_GAIN -0.60 dB
REM REPLAYGAIN_TRACK_PEAK 0.941986
INDEX 01 00:00:00
FILE "02 - Rubljov.flac" WAVE
TRACK 02 AUDIO
TITLE "Rubljov"
PERFORMER "Gábor Gadó"
SONGWRITER "Gábor Gadó"
ISRC HUA150815402
REM REPLAYGAIN_TRACK_GAIN 11.47 dB
REM REPLAYGAIN_TRACK_PEAK 0.282715
INDEX 01 00:00:00
FILE "03 - Narrations.flac" WAVE
TRACK 03 AUDIO
TITLE "Narrations"
PERFORMER "Gábor Gadó"
SONGWRITER "Gábor Gadó"
ISRC HUA150815403
REM REPLAYGAIN_TRACK_GAIN 2.65 dB
REM REPLAYGAIN_TRACK_PEAK 0.945618
INDEX 01 00:00:00
FILE "04 - Bunan XVII.flac" WAVE
TRACK 04 AUDIO
TITLE "Bunan XVII"
PERFORMER "Gábor Gadó"
SONGWRITER "Gábor Gadó"
ISRC HUA150815404
REM REPLAYGAIN_TRACK_GAIN -2.84 dB
REM REPLAYGAIN_TRACK_PEAK 0.992279
INDEX 01 00:00:00
TRACK 05 AUDIO
TITLE "Drepung"
PERFORMER "Gábor Gadó"
SONGWRITER "Gábor Gadó"
ISRC HUA150815405
REM REPLAYGAIN_TRACK_GAIN -2.38 dB
REM REPLAYGAIN_TRACK_PEAK 0.992188
INDEX 00 05:42:71
FILE "05 - Drepung.flac" WAVE
INDEX 01 00:00:00
FILE "06 - Lung-gom-pa.flac" WAVE
TRACK 06 AUDIO
TITLE "Lung-gom-pa"
PERFORMER "Gábor Gadó"
SONGWRITER "Gábor Gadó"
ISRC HUA150815406
REM REPLAYGAIN_TRACK_GAIN -2.88 dB
REM REPLAYGAIN_TRACK_PEAK 0.992371
INDEX 01 00:00:00
FILE "07 - Se-ra.flac" WAVE
TRACK 07 AUDIO
TITLE "Se-ra"
PERFORMER "Gábor Gadó"
SONGWRITER "Gábor Gadó"
ISRC HUA150815407
REM REPLAYGAIN_TRACK_GAIN -0.28 dB
REM REPLAYGAIN_TRACK_PEAK 0.992249
INDEX 01 00:00:00
TRACK 08 AUDIO
TITLE "Infra Voices From the Ultra Trumba I. Immersion"
PERFORMER "Gábor Gadó"
SONGWRITER "Róbert Benkő"
ISRC HUA150815408
REM REPLAYGAIN_TRACK_GAIN 4.52 dB
REM REPLAYGAIN_TRACK_PEAK 0.992310
INDEX 00 03:40:00
FILE "08 - Infra Voices From the Ultra Trumba I. Immersion.flac" WAVE
INDEX 01 00:00:00
FILE "09 - Infra Voices From the Ultra Trumba II. Faces.flac" WAVE
TRACK 09 AUDIO
TITLE "Infra Voices From the Ultra Trumba II. Faces"
PERFORMER "Gábor Gadó"
SONGWRITER "Gábor Gadó"
ISRC HUA150815409
REM REPLAYGAIN_TRACK_GAIN 0.02 dB
REM REPLAYGAIN_TRACK_PEAK 0.987976
INDEX 01 00:00:00
FILE "10 - Infra Voices From the Ultra Trumba III. Lila Amrit.flac" WAVE
TRACK 10 AUDIO
TITLE "Infra Voices From the Ultra Trumba III. Lîlâ Amrit"
PERFORMER "Gábor Gadó"
SONGWRITER "Barnabás Dukay"
REM REPLAYGAIN_TRACK_GAIN -2.50 dB
REM REPLAYGAIN_TRACK_PEAK 0.991882
INDEX 01 00:00:00
 
Об альбоме (сборнике)
L’atmosphère des albums de Gábor Gadó est toujours singulière. Il y a d’abord cette guitare claire et traînante et la complexité des compositions, où l’accent est mis sur la texture du son et sa profondeur. Sa musique travaille à la fois le bruitisme et les dispositifs de tensions et de timbres, sans perdre de vue la pulsation créative d’une base rythmique solide. C’est cette solidité, mais aussi sa réactivité, qui permettent au guitariste d’enflammer en un instant son propos et d’instiller un vrai relief à sa musique.
Celle-ci reste constamment en équilibre entre écriture contemporaine occidentale et influences orientales. Ainsi, de loin en loin, dans les échanges entre le violoncelle d’Endre Stankovszky et le saxophone alto de Kristof Bacsó comme dans la masse sonore minimaliste qui investit le silence, on distingue l’influence et l’épure de Schnittke - auquel le guitariste a souvent fait référence par le passé. Et dans un ostinato main gauche du piano préparé de Barnabas Dukay, on décèle des traces d’Alban Berg. Il faut d’ailleurs noter l’indispensable apport de Dukay sur cet album. Entre envolées subtiles et jeu de marteaux et de cordes, il incarne une profonde dimension organique et charnelle.
En réunissant un octet auquel se joint le trio Lignum [1], Gadó propose avec Lung-Gom-Pa un climat nouveau où l’on remarque avant tout l’abstraction chambriste. Celle-ci illustre le dialogue entre les instrumentistes et ménage de l’espace à Lignum mais aussi au travail atmosphérique du percussionniste Tamas Geroly, notamment sur le très beau « Bunan XVII ». Mais chez Gadó, l’incandescence du groove cabossé n’est jamais loin. La tension collective est portée par la relation privilégiée entre la contrebasse sèche du jeune et talentueux Matyas Szandai [2] et la batterie expressive du fidèle Joe Quitzke, notamment dans la construction complexe et en mouvement du morceau-titre.
Sur son précédent album, Byzantinum, Gadó se lançait dans une relecture païenne d’une apocalypse moderne. Avec Lung-Gom-Pa, il part chercher l’essence de son propos dans d’autres spiritualités, du côté des chimères asiatiques. Lung-Gom-Pa, c’est le nom tibétain de la marche méditative en suroxygénisation qui permet - paraît-il - aux lamas de parcourir de très longues distances dans la montagne. De cette quête-errance de sagesse fantasmée, il naît une musique de l’instant, un chemin collectif, avec ses heurts et revirements. Lung-Gom-Pa tangue entre douceurs subites et intempérances fécondes, notamment sur l’évocation du peintre byzantin Roublev (« Rubljov »). Toutes ces aspérités font de Lung-Gom-Pa un disque riche et complexe qui affirme encore, s’il en était besoin, le talent d’un grand créateur.
 
Состав
Gábor Gadó - guitar
Barnabás Dukay - piano
Kristóf Bacsó - alt saxophone
Endre Stankovszky - cello
Mátyás Szandai - bass
Róbert Benkő - bass
Joe Quitzke - drums
Tamás Geröly - percussion
Trio Lignum:
Csaba Klenyán - klarinét
Lajos Rozmán - klarinét
György Lakatos - fagot
18:54
262
Нет комментариев. Ваш будет первым!