Вы используете незарегистрированную версию компонента "Вкладки"!

Поиск

(Avant-Garde, Modern Creative, Sketch Music) Marc Ducret (with Benoit Delbecq, Yves Robert, Julien Lourau a. o.) - Qui parle ? - 2003, FLAC (tracks+.cue), lossless

(Avant-Garde, Modern Creative, Sketch Music) Marc Ducret (with Benoit Delbecq, Yves Robert, Julien Lourau a. o.) - Qui parle ? - 2003, FLAC (tracks+.cue), lossless
Треклист:
Marc Ducret / Qui parle ?
Жанр: Avant-Garde, Modern Creative, Sketch Music
Страна-производитель диска: France
Год издания: 2003
Издатель (лейбл): Sketch Music
Номер по каталогу: SKE 333038
Аудиокодек: FLAC (*.flac)
Тип рипа: tracks+.cue
Битрейт аудио: lossless
Продолжительность: 1:15:07
Источник (релизер): Max Monteiro
Наличие сканов в содержимом раздачи: нет
Треклист:
01. On ne peut pas danser là-dessus 1:24
02. Le Menteur 7:32
03. L’Annexe (rurale) 1:14
04. L’Annexe 13:07
05. Qui parle ? 0:44
06. Emportez-moi 11:26
07. Double entendre 12:32
08. Ce sont les noms des mots 12:15
09. Double, simple 3:53
10. Emportez-moi 11:01
Toutes les compositions sont de Marc Ducret.
Enregistré aux studios Val d’Orge, Gimmick, Campus, au « Duc des Lombards » et chez Marc.
Marc Ducret – guitares électriques 6 et 12 cordes, guitares fretless, bartyton, soprano, acoustique ; mélodica, jacks, voix
Bruno Chevillon – contrebasse, basse électrique
Dominique Pifarély – violon
Éric Échampard – batterie, percussions
Benoît Delbecq – piano, clavier, sampler
Allie Delfau – piano, clavier, sampler
Thierry Madiot – trombone basse
Hélène Labarrière – contrebasse
Alain Vankenhove – trompette, bugle
Michel Massot – tuba, petit tuba, trombone
Yves Robert – trombone
Julien Lourau – saxophone ténor
François Verly – percussions, boîte à rythmes
Christophe Monniot – saxophones alto & baryton
Anne Magouët – chant
Leslie Sévenier, Philippe Agaël, Laurence Blasco – voix
 
Лог создания рипа
Exact Audio Copy V1.0 beta 3 from 29. August 2011
EAC extraction logfile from 18. September 2013, 21:07
Marc Ducret / Qui parle ?
Used drive : SlimtypeeNAU508 5 Adapter: 1 ID: 0
Read mode : Secure
Utilize accurate stream : Yes
Defeat audio cache : Yes
Make use of C2 pointers : No
Read offset correction : 6
Overread into Lead-In and Lead-Out : No
Fill up missing offset samples with silence : Yes
Delete leading and trailing silent blocks : No
Null samples used in CRC calculations : Yes
Used interface : Native Win32 interface for Win NT & 2000
Gap handling : Appended to previous track
Used output format : User Defined Encoder
Selected bitrate : 768 kBit/s
Quality : High
Add ID3 tag : No
Command line compressor : C:\Program Files (x86)\Exact Audio Copy\Flac\flac.exe
Additional command line options : -8 -V -T "ARTIST=%artist%" -T "TITLE=%title%" -T "ALBUM=%albumtitle%" -T "DATE=%year%" -T "TRACKNUMBER=%tracknr%" -T "GENRE=%genre%" -T "PERFORMER=%albuminterpret%" -T "COMPOSER=%composer%" %haslyrics%--tag-from-file=LYRICS="%lyricsfile%"%haslyrics% -T "ALBUMARTIST=%albumartist%" -T "DISCNUMBER=%cdnumber%" -T "TOTALDISCS=%totalcds%" -T "TOTALTRACKS=%numtracks%" -T "COMMENT=%comment%" %source% -o %dest%
TOC of the extracted CD
Track | Start | Length | Start sector | End sector
---------------------------------------------------------
1 | 0:00.00 | 1:24.02 | 0 | 6301
2 | 1:24.02 | 7:32.16 | 6302 | 40217
3 | 8:56.18 | 1:13.73 | 40218 | 45765
4 | 10:10.16 | 13:06.38 | 45766 | 104753
5 | 23:16.54 | 0:43.64 | 104754 | 108042
6 | 24:00.43 | 11:25.62 | 108043 | 159479
7 | 35:26.30 | 12:31.72 | 159480 | 215876
8 | 47:58.27 | 12:14.53 | 215877 | 270979
9 | 60:13.05 | 3:52.63 | 270980 | 288442
10 | 64:05.68 | 11:00.73 | 288443 | 338015
Track 1
Filename C:\EAC rips\01 - On ne peut pas danser là-dessus.wav
Pre-gap length 0:00:02.00
Peak level 99.2 %
Extraction speed 1.7 X
Track quality 100.0 %
Test CRC 926D46B6
Copy CRC 926D46B6
Accurately ripped (confidence 5) [6E46A2DC] (AR v2)
Copy OK
Track 2
Filename C:\EAC rips\02 - Le Menteur.wav
Peak level 99.8 %
Extraction speed 2.6 X
Track quality 100.0 %
Test CRC B41972AA
Copy CRC B41972AA
Accurately ripped (confidence 5) [D0FF07A2] (AR v2)
Copy OK
Track 3
Filename C:\EAC rips\03 - L'Annexe (rurale).wav
Pre-gap length 0:00:03.66
Peak level 99.9 %
Extraction speed 2.0 X
Track quality 100.0 %
Test CRC E9A0A793
Copy CRC E9A0A793
Accurately ripped (confidence 5) [598DA148] (AR v2)
Copy OK
Track 4
Filename C:\EAC rips\04 - L'Annexe.wav
Peak level 100.0 %
Extraction speed 3.1 X
Track quality 99.9 %
Test CRC 003D6E76
Copy CRC 003D6E76
Accurately ripped (confidence 5) [71DB1424] (AR v2)
Copy OK
Track 5
Filename C:\EAC rips\05 - Qui parle _.wav
Pre-gap length 0:00:03.10
Peak level 99.4 %
Extraction speed 1.9 X
Track quality 100.0 %
Test CRC 556B0E85
Copy CRC 556B0E85
Accurately ripped (confidence 5) [10306E39] (AR v2)
Copy OK
Track 6
Filename C:\EAC rips\06 - Emportez-moi.wav
Pre-gap length 0:00:02.04
Peak level 100.0 %
Extraction speed 3.8 X
Track quality 100.0 %
Test CRC 4DC86087
Copy CRC 4DC86087
Accurately ripped (confidence 5) [8DBFB5F1] (AR v2)
Copy OK
Track 7
Filename C:\EAC rips\07 - Double entendre.wav
Pre-gap length 0:00:04.43
Peak level 100.0 %
Extraction speed 4.0 X
Track quality 99.9 %
Test CRC 558BBA16
Copy CRC 558BBA16
Accurately ripped (confidence 5) [0A34FBA5] (AR v2)
Copy OK
Track 8
Filename C:\EAC rips\08 - Ce sont les noms des mots.wav
Pre-gap length 0:00:05.36
Peak level 100.0 %
Extraction speed 4.3 X
Track quality 99.9 %
Test CRC 33EDC456
Copy CRC 33EDC456
Accurately ripped (confidence 5) [36F134BA] (AR v2)
Copy OK
Track 9
Filename C:\EAC rips\09 - Double, simple.wav
Pre-gap length 0:00:04.02
Peak level 99.5 %
Extraction speed 3.6 X
Track quality 99.9 %
Test CRC 373B87F8
Copy CRC 373B87F8
Accurately ripped (confidence 5) [73561581] (AR v2)
Copy OK
Track 10
Filename C:\EAC rips\10 - Emportez-moi.wav
Pre-gap length 0:00:03.55
Peak level 99.2 %
Extraction speed 5.1 X
Track quality 100.0 %
Test CRC B0BD45A3
Copy CRC B0BD45A3
Accurately ripped (confidence 5) [25928EA1] (AR v2)
Copy OK
All tracks accurately ripped
No errors occurred
End of status report
---- CUETools DB Plugin V2.1.4
[CTDB TOCID: VsQ4HLAIVnEPVd8vvx_CCFx1moQ-] found
Submit result: VsQ4HLAIVnEPVd8vvx_CCFx1moQ- has been confirmed
Track | CTDB Status
1 | (1/1) Accurately ripped
2 | (1/1) Accurately ripped
3 | (1/1) Accurately ripped
4 | (1/1) Accurately ripped
5 | (1/1) Accurately ripped
6 | (1/1) Accurately ripped
7 | (1/1) Accurately ripped
8 | (1/1) Accurately ripped
9 | (1/1) Accurately ripped
10 | (1/1) Accurately ripped
==== Log checksum C00D772EB5E22229DE4B7DEDC65B9A32BDCFAFBDBCDAC4ED3BCF3E5AA90E9E56 ====
 
Содержание индексной карты (.CUE)
REM GENRE Jazz
REM DATE 2003
REM DISCID 8D119A0A
REM COMMENT "ExactAudioCopy v1.0b3"
PERFORMER "Marc Ducret"
TITLE "Qui parle ?"
FILE "01 - On ne peut pas danser là-dessus.wav" WAVE
TRACK 01 AUDIO
TITLE "On ne peut pas danser là-dessus"
PERFORMER "Marc Ducret"
ISRC FR45R0300054
INDEX 01 00:00:00
FILE "02 - Le Menteur.wav" WAVE
TRACK 02 AUDIO
TITLE "Le Menteur"
PERFORMER "Marc Ducret"
ISRC FR45R0300055
INDEX 01 00:00:00
TRACK 03 AUDIO
TITLE "L'Annexe (rurale)"
PERFORMER "Marc Ducret"
ISRC FR45R0300056
INDEX 00 07:28:25
FILE "03 - L'Annexe (rurale).wav" WAVE
INDEX 01 00:00:00
FILE "04 - L'Annexe.wav" WAVE
TRACK 04 AUDIO
TITLE "L'Annexe"
PERFORMER "Marc Ducret"
ISRC FR45R0300057
INDEX 01 00:00:00
TRACK 05 AUDIO
TITLE "Qui parle ?"
PERFORMER "Marc Ducret"
ISRC FR45R0300058
INDEX 00 13:03:28
FILE "05 - Qui parle _.wav" WAVE
INDEX 01 00:00:00
TRACK 06 AUDIO
TITLE "Emportez-moi"
PERFORMER "Marc Ducret"
ISRC FR45R0300059
INDEX 00 00:41:60
FILE "06 - Emportez-moi.wav" WAVE
INDEX 01 00:00:00
TRACK 07 AUDIO
TITLE "Double entendre"
PERFORMER "Marc Ducret"
ISRC FR45R0300060
INDEX 00 11:21:19
FILE "07 - Double entendre.wav" WAVE
INDEX 01 00:00:00
TRACK 08 AUDIO
TITLE "Ce sont les noms des mots"
PERFORMER "Marc Ducret"
ISRC FR45R0300061
INDEX 00 12:26:36
FILE "08 - Ce sont les noms des mots.wav" WAVE
INDEX 01 00:00:00
TRACK 09 AUDIO
TITLE "Double, simple"
PERFORMER "Marc Ducret"
ISRC FR45R0300062
INDEX 00 12:10:51
FILE "09 - Double, simple.wav" WAVE
INDEX 01 00:00:00
TRACK 10 AUDIO
TITLE "Emportez-moi"
PERFORMER "Marc Ducret"
ISRC FR45R0300063
INDEX 00 03:49:08
FILE "10 - Emportez-moi.wav" WAVE
INDEX 01 00:00:00
Any questions -> support@pro-jazz.com. По всем вопросам пишите -> support@pro-jazz.com
18:54
176
Нет комментариев. Ваш будет первым!