Вы используете незарегистрированную версию компонента "Вкладки"!

Поиск

(Contemporary Jazz) Yoann Loustalot - Primavera - 2006, FLAC (tracks+.cue), lossless

(Contemporary Jazz) Yoann Loustalot - Primavera - 2006, FLAC (tracks+.cue), lossless
Треклист:
Yoann Loustalot / Primavera
Жанр: Contemporary Jazz
Страна-производитель диска: France
Год издания: 2006
Издатель (лейбл): Elabeth
Номер по каталогу: ELA 621056
Аудиокодек: FLAC (*.flac)
Тип рипа: tracks+.cue
Битрейт аудио: lossless
Продолжительность: 43:37
Источник (релизер): Max Monteiro
Наличие сканов в содержимом раздачи: нет
Треклист:
1. Krapnel 5:19
2. Primavera (Yoann Loustalot / Monsieur Gadou) 4:54
3. Ataxar 4:21
4. Masque 5:29
5. Extern Sound 5:50
6. Escaminor 4:41
7. Eva (Monsieur Gadou) 5:02
8. Zabeil (Yoann Loustalot / Yoni Zelnik) 3:27
9. Monsieur Alice 4:34
Les compositions sont d’Yoann Loustalot sauf où indiqué.
Enregistré les 29, 30 novembre et 1er décembre 2005 au studio Berduquet, Cénac (France).
Yoann Loustalot – bugle
Maxime Fougères – guitare
Yoni Zelnik – contrebasse
Guillaume Nouaux – batterie
 
Лог создания рипа
Exact Audio Copy V1.0 beta 3 from 29. August 2011
EAC extraction logfile from 10. October 2013, 17:08
Yoann Loustalot / Primavera
Used drive : SlimtypeeNAU508 5 Adapter: 1 ID: 0
Read mode : Secure
Utilize accurate stream : Yes
Defeat audio cache : Yes
Make use of C2 pointers : No
Read offset correction : 6
Overread into Lead-In and Lead-Out : No
Fill up missing offset samples with silence : Yes
Delete leading and trailing silent blocks : No
Null samples used in CRC calculations : Yes
Used interface : Native Win32 interface for Win NT & 2000
Gap handling : Appended to previous track
Used output format : User Defined Encoder
Selected bitrate : 768 kBit/s
Quality : High
Add ID3 tag : No
Command line compressor : C:\Program Files (x86)\Exact Audio Copy\Flac\flac.exe
Additional command line options : -8 -V -T "ARTIST=%artist%" -T "TITLE=%title%" -T "ALBUM=%albumtitle%" -T "DATE=%year%" -T "TRACKNUMBER=%tracknr%" -T "GENRE=%genre%" -T "PERFORMER=%albuminterpret%" -T "COMPOSER=%composer%" %haslyrics%--tag-from-file=LYRICS="%lyricsfile%"%haslyrics% -T "ALBUMARTIST=%albumartist%" -T "DISCNUMBER=%cdnumber%" -T "TOTALDISCS=%totalcds%" -T "TOTALTRACKS=%numtracks%" -T "COMMENT=%comment%" %source% -o %dest%
TOC of the extracted CD
Track | Start | Length | Start sector | End sector
---------------------------------------------------------
1 | 0:00.00 | 5:19.02 | 0 | 23926
2 | 5:19.02 | 4:53.71 | 23927 | 45972
3 | 10:12.73 | 4:20.64 | 45973 | 65536
4 | 14:33.62 | 5:29.20 | 65537 | 90231
5 | 20:03.07 | 5:50.06 | 90232 | 116487
6 | 25:53.13 | 4:40.68 | 116488 | 137555
7 | 30:34.06 | 5:02.10 | 137556 | 160215
8 | 35:36.16 | 3:27.20 | 160216 | 175760
9 | 39:03.36 | 4:33.69 | 175761 | 196304
Track 1
Filename C:\EAC rips\01 - Krapnel.wav
Pre-gap length 0:00:02.00
Peak level 100.0 %
Extraction speed 1.9 X
Track quality 99.9 %
Test CRC F0FCF09C
Copy CRC F0FCF09C
Accurately ripped (confidence 2) [5F832FC6] (AR v1)
Copy OK
Track 2
Filename C:\EAC rips\02 - Primavera.wav
Pre-gap length 0:00:02.00
Peak level 100.0 %
Extraction speed 2.5 X
Track quality 100.0 %
Test CRC A37BD1FC
Copy CRC A37BD1FC
Accurately ripped (confidence 2) [C8573E11] (AR v1)
Copy OK
Track 3
Filename C:\EAC rips\03 - Ataxar.wav
Pre-gap length 0:00:02.00
Peak level 100.0 %
Extraction speed 2.7 X
Track quality 100.0 %
Test CRC 579C44CE
Copy CRC 579C44CE
Accurately ripped (confidence 2) [5F23644E] (AR v1)
Copy OK
Track 4
Filename C:\EAC rips\04 - Masque.wav
Pre-gap length 0:00:02.00
Peak level 100.0 %
Extraction speed 3.0 X
Track quality 100.0 %
Test CRC 5865AB21
Copy CRC 5865AB21
Accurately ripped (confidence 2) [94638CB1] (AR v1)
Copy OK
Track 5
Filename C:\EAC rips\05 - Extern Sound.wav
Pre-gap length 0:00:02.00
Peak level 100.0 %
Extraction speed 3.3 X
Track quality 100.0 %
Test CRC 2AE8C07F
Copy CRC 2AE8C07F
Accurately ripped (confidence 2) [E4AD5B7F] (AR v1)
Copy OK
Track 6
Filename C:\EAC rips\06 - Escaminor.wav
Pre-gap length 0:00:02.01
Peak level 100.0 %
Extraction speed 3.4 X
Track quality 100.0 %
Test CRC DA97561F
Copy CRC DA97561F
Accurately ripped (confidence 2) [FFAA216C] (AR v1)
Copy OK
Track 7
Filename C:\EAC rips\07 - Eva.wav
Pre-gap length 0:00:02.00
Peak level 100.0 %
Extraction speed 3.0 X
Track quality 99.9 %
Test CRC 156AC81A
Copy CRC 156AC81A
Accurately ripped (confidence 2) [B559FB82] (AR v1)
Copy OK
Track 8
Filename C:\EAC rips\08 - Zabeil.wav
Pre-gap length 0:00:02.00
Peak level 100.0 %
Extraction speed 3.5 X
Track quality 100.0 %
Test CRC 1FC8CCEB
Copy CRC 1FC8CCEB
Accurately ripped (confidence 2) [E1A908A7] (AR v1)
Copy OK
Track 9
Filename C:\EAC rips\09 - Monsieur Alice.wav
Pre-gap length 0:00:02.00
Peak level 100.0 %
Extraction speed 3.2 X
Track quality 99.9 %
Test CRC 02AE3F9C
Copy CRC 02AE3F9C
Accurately ripped (confidence 1) [FD5DC8C9] (AR v1)
Copy OK
All tracks accurately ripped
No errors occurred
End of status report
---- CUETools DB Plugin V2.1.4
[CTDB TOCID: q0hAzV0VxIYIH5k7M2hCyZXgKNI-] disk not present in database
Submit result: q0hAzV0VxIYIH5k7M2hCyZXgKNI- has been uploaded
==== Log checksum 903334AE8C8570AE49B28382B3C5AB8295A6F48B13AA5A67BEC15BCC8967BB85 ====
 
Содержание индексной карты (.CUE)
REM GENRE Jazz
REM DATE 2006
REM DISCID 6D0A3909
REM COMMENT "ExactAudioCopy v1.0b3"
CATALOG 3700423110566
PERFORMER "Yoann Loustalot"
TITLE "Primavera"
FILE "01 - Krapnel.wav" WAVE
TRACK 01 AUDIO
TITLE "Krapnel"
PERFORMER " "
ISRC FRW270500341
INDEX 01 00:00:00
TRACK 02 AUDIO
TITLE "Primavera"
PERFORMER " "
ISRC FRW270500351
INDEX 00 05:17:02
FILE "02 - Primavera.wav" WAVE
INDEX 01 00:00:00
TRACK 03 AUDIO
TITLE "Ataxar"
PERFORMER " "
ISRC FRW270500361
INDEX 00 04:51:71
FILE "03 - Ataxar.wav" WAVE
INDEX 01 00:00:00
TRACK 04 AUDIO
TITLE "Masque"
PERFORMER " "
ISRC FRW270500371
INDEX 00 04:18:64
FILE "04 - Masque.wav" WAVE
INDEX 01 00:00:00
TRACK 05 AUDIO
TITLE "Extern Sound"
PERFORMER " "
ISRC FRW270500381
INDEX 00 05:27:20
FILE "05 - Extern Sound.wav" WAVE
INDEX 01 00:00:00
TRACK 06 AUDIO
TITLE "Escaminor"
PERFORMER " "
ISRC FRW270500391
INDEX 00 05:48:05
FILE "06 - Escaminor.wav" WAVE
INDEX 01 00:00:00
TRACK 07 AUDIO
TITLE "Eva"
PERFORMER " "
ISRC FRW270500401
INDEX 00 04:38:68
FILE "07 - Eva.wav" WAVE
INDEX 01 00:00:00
TRACK 08 AUDIO
TITLE "Zabeil"
PERFORMER " "
ISRC FRW270500411
INDEX 00 05:00:10
FILE "08 - Zabeil.wav" WAVE
INDEX 01 00:00:00
TRACK 09 AUDIO
TITLE "Monsieur Alice"
PERFORMER " "
ISRC FRW270500421
INDEX 00 03:25:20
FILE "09 - Monsieur Alice.wav" WAVE
INDEX 01 00:00:00
Any questions -> support@pro-jazz.com. По всем вопросам пишите -> support@pro-jazz.com
18:53
130
Нет комментариев. Ваш будет первым!