Вы используете незарегистрированную версию компонента "Вкладки"!

Поиск

(Avant-Garde, Free Jazz) Alban Darche, Gаbor Gadо, Sеbastien Boisseau - Budapest Concerts - 2010, FLAC (tracks+.cue), lossless

(Avant-Garde, Free Jazz) Alban Darche, Gаbor Gadо, Sеbastien Boisseau - Budapest Concerts - 2010, FLAC (tracks+.cue), lossless
Треклист:
Alban Darche, Gábor Gadó, Sébastien Boisseau - Budapest Concerts
Жанр: Avant-Garde, Free Jazz
Страна-производитель диска: Hungary
Год издания: 2010
Издатель (лейбл): BMC
Номер по каталогу: BMCCD164
Аудиокодек: FLAC (*.flac)
Тип рипа: tracks+.cue
Битрейт аудио: lossless
Продолжительность: 57:23
Источник (релизер): вата
Наличие сканов в содержимом раздачи: нет
Треклист:
1. Missin' home 6:52
2. Mon tribut a Tim Burton 3:17
3. L'Orfevre 5:09
4. La bille 4:28
5. Berceuse mignonne 4:16
6. Bis free 4:37
7. Postlude 4:07
8. Tregor Song 6:09
9. La conjuration des imbéciles / A Confederacy of Dunces 4:55
10. Écorces 7:30
11. Traître humanoide (Anagram of Matthieu Donarier) 5:58
Alban Darche: tenor saxophone
Gábor Gadó: guitar
Sébastien Boisseau: double bass
 
Лог создания рипа
X Lossless Decoder version 20130602 (143.2)
XLD extraction logfile from 2013-06-12 13:12:56 +0400
Alban Darche, Gadó Gábor, Sébastien Boisseau / Budapest Concerts
Used drive : HL-DT-ST DVDRW GX30N (revision RP09)
Media type : Pressed CD
Ripper mode : XLD Secure Ripper
Disable audio cache : OK for the drive with a cache less than 1375KiB
Make use of C2 pointers : NO
Read offset correction : 6
Max retry count : 100
Gap status : Analyzed, Appended (except HTOA)
TOC of the extracted CD
Track | Start | Length | Start sector | End sector
---------------------------------------------------------
1 | 00:00:00 | 06:52:47 | 0 | 30946
2 | 06:52:47 | 03:17:32 | 30947 | 45753
3 | 10:10:04 | 05:09:12 | 45754 | 68940
4 | 15:19:16 | 04:28:07 | 68941 | 89047
5 | 19:47:23 | 04:16:51 | 89048 | 108298
6 | 24:03:74 | 04:37:28 | 108299 | 129101
7 | 28:41:27 | 04:07:73 | 129102 | 147699
8 | 32:49:25 | 06:09:67 | 147700 | 175441
9 | 38:59:17 | 04:55:28 | 175442 | 197594
10 | 43:54:45 | 07:30:28 | 197595 | 231372
11 | 51:24:73 | 05:58:27 | 231373 | 258249
AccurateRip Summary
Disc not found in AccurateRip DB.
All Tracks
Album gain : -4.18 dB
Peak : 0.993561
Statistics
Read error : 0
Jitter error (maybe fixed) : 0
Retry sector count : 0
Damaged sector count : 0
Track 01
Filename : /Users/anch/Music/FLAC/Alban Darche, Gado Gabor, Sebastien Boisseau - 2010 - Budapest Concerts [MP3 320]/01 - Missin' home.mp3
/Users/anch/Music/FLAC/Alban Darche, Gado Gabor, Sebastien Boisseau - 2010 - Budapest Concerts [MP3 V0]/01 - Missin' home.mp3
/Users/anch/Music/FLAC/Alban Darche, Gado Gabor, Sebastien Boisseau - 2010 - Budapest Concerts [FLAC]/01 - Missin' home.flac
Pre-gap length : 00:02:00
Track gain : -4.97 dB
Peak : 0.993164
CRC32 hash (test run) : F27D0C28
CRC32 hash : F27D0C28
CRC32 hash (skip zero) : 69CF20B3
AccurateRip v1 signature : EC9E2E91
AccurateRip v2 signature : ADC206F9
->Track not present in AccurateRip database.
Statistics
Read error : 0
Jitter error (maybe fixed) : 0
Retry sector count : 0
Damaged sector count : 0
Track 02
Filename : /Users/anch/Music/FLAC/Alban Darche, Gado Gabor, Sebastien Boisseau - 2010 - Budapest Concerts [MP3 320]/02 - Mon tribut a Tim Burton.mp3
/Users/anch/Music/FLAC/Alban Darche, Gado Gabor, Sebastien Boisseau - 2010 - Budapest Concerts [MP3 V0]/02 - Mon tribut a Tim Burton.mp3
/Users/anch/Music/FLAC/Alban Darche, Gado Gabor, Sebastien Boisseau - 2010 - Budapest Concerts [FLAC]/02 - Mon tribut a Tim Burton.flac
Track gain : -4.42 dB
Peak : 0.993561
CRC32 hash (test run) : B40147EB
CRC32 hash : B40147EB
CRC32 hash (skip zero) : 33A280D5
AccurateRip v1 signature : 032AB750
AccurateRip v2 signature : 859E3208
->Track not present in AccurateRip database.
Statistics
Read error : 0
Jitter error (maybe fixed) : 0
Retry sector count : 0
Damaged sector count : 0
Track 03
Filename : /Users/anch/Music/FLAC/Alban Darche, Gado Gabor, Sebastien Boisseau - 2010 - Budapest Concerts [MP3 320]/03 - L'orfevre.mp3
/Users/anch/Music/FLAC/Alban Darche, Gado Gabor, Sebastien Boisseau - 2010 - Budapest Concerts [MP3 V0]/03 - L'orfevre.mp3
/Users/anch/Music/FLAC/Alban Darche, Gado Gabor, Sebastien Boisseau - 2010 - Budapest Concerts [FLAC]/03 - L'orfevre.flac
Track gain : -5.51 dB
Peak : 0.993317
CRC32 hash (test run) : 8E9682DF
CRC32 hash : 8E9682DF
CRC32 hash (skip zero) : 30D8EB91
AccurateRip v1 signature : D45A4823
AccurateRip v2 signature : 65056848
->Track not present in AccurateRip database.
Statistics
Read error : 0
Jitter error (maybe fixed) : 0
Retry sector count : 0
Damaged sector count : 0
Track 04
Filename : /Users/anch/Music/FLAC/Alban Darche, Gado Gabor, Sebastien Boisseau - 2010 - Budapest Concerts [MP3 320]/04 - La bille.mp3
/Users/anch/Music/FLAC/Alban Darche, Gado Gabor, Sebastien Boisseau - 2010 - Budapest Concerts [MP3 V0]/04 - La bille.mp3
/Users/anch/Music/FLAC/Alban Darche, Gado Gabor, Sebastien Boisseau - 2010 - Budapest Concerts [FLAC]/04 - La bille.flac
Track gain : -3.54 dB
Peak : 0.993378
CRC32 hash (test run) : B29DC94B
CRC32 hash : B29DC94B
CRC32 hash (skip zero) : 4AF68646
AccurateRip v1 signature : 0F9AAA78
AccurateRip v2 signature : D5B58403
->Track not present in AccurateRip database.
Statistics
Read error : 0
Jitter error (maybe fixed) : 0
Retry sector count : 0
Damaged sector count : 0
Track 05
Filename : /Users/anch/Music/FLAC/Alban Darche, Gado Gabor, Sebastien Boisseau - 2010 - Budapest Concerts [MP3 320]/05 - Berceuse Mignonne.mp3
/Users/anch/Music/FLAC/Alban Darche, Gado Gabor, Sebastien Boisseau - 2010 - Budapest Concerts [MP3 V0]/05 - Berceuse Mignonne.mp3
/Users/anch/Music/FLAC/Alban Darche, Gado Gabor, Sebastien Boisseau - 2010 - Budapest Concerts [FLAC]/05 - Berceuse Mignonne.flac
Track gain : -4.01 dB
Peak : 0.993347
CRC32 hash (test run) : 005186E4
CRC32 hash : 005186E4
CRC32 hash (skip zero) : 36DCD59A
AccurateRip v1 signature : 54A544DB
AccurateRip v2 signature : 6195EC4A
->Track not present in AccurateRip database.
Statistics
Read error : 0
Jitter error (maybe fixed) : 0
Retry sector count : 0
Damaged sector count : 0
Track 06
Filename : /Users/anch/Music/FLAC/Alban Darche, Gado Gabor, Sebastien Boisseau - 2010 - Budapest Concerts [MP3 320]/06 - Bis free.mp3
/Users/anch/Music/FLAC/Alban Darche, Gado Gabor, Sebastien Boisseau - 2010 - Budapest Concerts [MP3 V0]/06 - Bis free.mp3
/Users/anch/Music/FLAC/Alban Darche, Gado Gabor, Sebastien Boisseau - 2010 - Budapest Concerts [FLAC]/06 - Bis free.flac
Track gain : -3.09 dB
Peak : 0.993347
CRC32 hash (test run) : 53005A8F
CRC32 hash : 53005A8F
CRC32 hash (skip zero) : B5BFE170
AccurateRip v1 signature : 1F2ED3E2
AccurateRip v2 signature : 3F63B25C
->Track not present in AccurateRip database.
Statistics
Read error : 0
Jitter error (maybe fixed) : 0
Retry sector count : 0
Damaged sector count : 0
Track 07
Filename : /Users/anch/Music/FLAC/Alban Darche, Gado Gabor, Sebastien Boisseau - 2010 - Budapest Concerts [MP3 320]/07 - Postlude.mp3
/Users/anch/Music/FLAC/Alban Darche, Gado Gabor, Sebastien Boisseau - 2010 - Budapest Concerts [MP3 V0]/07 - Postlude.mp3
/Users/anch/Music/FLAC/Alban Darche, Gado Gabor, Sebastien Boisseau - 2010 - Budapest Concerts [FLAC]/07 - Postlude.flac
Track gain : -5.13 dB
Peak : 0.993439
CRC32 hash (test run) : 1ACF6AEE
CRC32 hash : 1ACF6AEE
CRC32 hash (skip zero) : 80E87257
AccurateRip v1 signature : 74865A5D
AccurateRip v2 signature : 556A2BB7
->Track not present in AccurateRip database.
Statistics
Read error : 0
Jitter error (maybe fixed) : 0
Retry sector count : 0
Damaged sector count : 0
Track 08
Filename : /Users/anch/Music/FLAC/Alban Darche, Gado Gabor, Sebastien Boisseau - 2010 - Budapest Concerts [MP3 320]/08 - Tregor song.mp3
/Users/anch/Music/FLAC/Alban Darche, Gado Gabor, Sebastien Boisseau - 2010 - Budapest Concerts [MP3 V0]/08 - Tregor song.mp3
/Users/anch/Music/FLAC/Alban Darche, Gado Gabor, Sebastien Boisseau - 2010 - Budapest Concerts [FLAC]/08 - Tregor song.flac
Track gain : -4.03 dB
Peak : 0.993439
CRC32 hash (test run) : 667B6791
CRC32 hash : 667B6791
CRC32 hash (skip zero) : 449F4B62
AccurateRip v1 signature : 2778DFFB
AccurateRip v2 signature : A55B981F
->Track not present in AccurateRip database.
Statistics
Read error : 0
Jitter error (maybe fixed) : 0
Retry sector count : 0
Damaged sector count : 0
Track 09
Filename : /Users/anch/Music/FLAC/Alban Darche, Gado Gabor, Sebastien Boisseau - 2010 - Budapest Concerts [MP3 320]/09 - La conjuration des imbeciles (A confederacy of dunces).mp3
/Users/anch/Music/FLAC/Alban Darche, Gado Gabor, Sebastien Boisseau - 2010 - Budapest Concerts [MP3 V0]/09 - La conjuration des imbeciles (A confederacy of dunces).mp3
/Users/anch/Music/FLAC/Alban Darche, Gado Gabor, Sebastien Boisseau - 2010 - Budapest Concerts [FLAC]/09 - La conjuration des imbeciles (A confederacy of dunces).flac
Track gain : -2.69 dB
Peak : 0.993317
CRC32 hash (test run) : 73386A91
CRC32 hash : 73386A91
CRC32 hash (skip zero) : 3A49386A
AccurateRip v1 signature : 7E33768B
AccurateRip v2 signature : 1A5926D2
->Track not present in AccurateRip database.
Statistics
Read error : 0
Jitter error (maybe fixed) : 0
Retry sector count : 0
Damaged sector count : 0
Track 10
Filename : /Users/anch/Music/FLAC/Alban Darche, Gado Gabor, Sebastien Boisseau - 2010 - Budapest Concerts [MP3 320]/10 - Ecorces.mp3
/Users/anch/Music/FLAC/Alban Darche, Gado Gabor, Sebastien Boisseau - 2010 - Budapest Concerts [MP3 V0]/10 - Ecorces.mp3
/Users/anch/Music/FLAC/Alban Darche, Gado Gabor, Sebastien Boisseau - 2010 - Budapest Concerts [FLAC]/10 - Ecorces.flac
Track gain : -1.96 dB
Peak : 0.797302
CRC32 hash (test run) : 01890534
CRC32 hash : 01890534
CRC32 hash (skip zero) : 52696D06
AccurateRip v1 signature : 0D3616B5
AccurateRip v2 signature : B185D05F
->Track not present in AccurateRip database.
Statistics
Read error : 0
Jitter error (maybe fixed) : 0
Retry sector count : 0
Damaged sector count : 0
Track 11
Filename : /Users/anch/Music/FLAC/Alban Darche, Gado Gabor, Sebastien Boisseau - 2010 - Budapest Concerts [MP3 320]/11 - Traitre humanoide (Anagram of Matthieu Donarier).mp3
/Users/anch/Music/FLAC/Alban Darche, Gado Gabor, Sebastien Boisseau - 2010 - Budapest Concerts [MP3 V0]/11 - Traitre humanoide (Anagram of Matthieu Donarier).mp3
/Users/anch/Music/FLAC/Alban Darche, Gado Gabor, Sebastien Boisseau - 2010 - Budapest Concerts [FLAC]/11 - Traitre humanoide (Anagram of Matthieu Donarier).flac
Track gain : -3.89 dB
Peak : 0.993347
CRC32 hash (test run) : 4124BE72
CRC32 hash : 4124BE72
CRC32 hash (skip zero) : 332BE54E
AccurateRip v1 signature : A019A86C
AccurateRip v2 signature : 47A7B2D1
->Track not present in AccurateRip database.
Statistics
Read error : 0
Jitter error (maybe fixed) : 0
Retry sector count : 0
Damaged sector count : 0
No errors occurred
End of status report
 
Содержание индексной карты (.CUE)
REM GENRE Jazz
REM DATE 2010
PERFORMER "Alban Darche, Gado Gabor, Sebastien Boisseau"
TITLE "Budapest Concerts"
REM REPLAYGAIN_ALBUM_GAIN -4.18 dB
REM REPLAYGAIN_ALBUM_PEAK 0.993561
FILE "01 - Missin' home.flac" WAVE
TRACK 01 AUDIO
TITLE "Missin' home"
PERFORMER "Alban Darche, Gado Gabor, Sebastien Boisseau"
ISRC HUA150816401
REM REPLAYGAIN_TRACK_GAIN -4.97 dB
REM REPLAYGAIN_TRACK_PEAK 0.993164
INDEX 01 00:00:00
FILE "02 - Mon tribut a Tim Burton.flac" WAVE
TRACK 02 AUDIO
TITLE "Mon tribut a Tim Burton"
PERFORMER "Alban Darche, Gado Gabor, Sebastien Boisseau"
ISRC HUA150816402
REM REPLAYGAIN_TRACK_GAIN -4.42 dB
REM REPLAYGAIN_TRACK_PEAK 0.993561
INDEX 01 00:00:00
FILE "03 - L'orfevre.flac" WAVE
TRACK 03 AUDIO
TITLE "L'orfevre"
PERFORMER "Alban Darche, Gado Gabor, Sebastien Boisseau"
ISRC HUA150816403
REM REPLAYGAIN_TRACK_GAIN -5.51 dB
REM REPLAYGAIN_TRACK_PEAK 0.993317
INDEX 01 00:00:00
FILE "04 - La bille.flac" WAVE
TRACK 04 AUDIO
TITLE "La bille"
PERFORMER "Alban Darche, Gado Gabor, Sebastien Boisseau"
ISRC HUA150816404
REM REPLAYGAIN_TRACK_GAIN -3.54 dB
REM REPLAYGAIN_TRACK_PEAK 0.993378
INDEX 01 00:00:00
FILE "05 - Berceuse Mignonne.flac" WAVE
TRACK 05 AUDIO
TITLE "Berceuse Mignonne"
PERFORMER "Alban Darche, Gado Gabor, Sebastien Boisseau"
ISRC HUA150816405
REM REPLAYGAIN_TRACK_GAIN -4.01 dB
REM REPLAYGAIN_TRACK_PEAK 0.993347
INDEX 01 00:00:00
FILE "06 - Bis free.flac" WAVE
TRACK 06 AUDIO
TITLE "Bis free"
PERFORMER "Alban Darche, Gado Gabor, Sebastien Boisseau"
ISRC HUA150816406
REM REPLAYGAIN_TRACK_GAIN -3.09 dB
REM REPLAYGAIN_TRACK_PEAK 0.993347
INDEX 01 00:00:00
FILE "07 - Postlude.flac" WAVE
TRACK 07 AUDIO
TITLE "Postlude"
PERFORMER "Alban Darche, Gado Gabor, Sebastien Boisseau"
ISRC HUA150816407
REM REPLAYGAIN_TRACK_GAIN -5.13 dB
REM REPLAYGAIN_TRACK_PEAK 0.993439
INDEX 01 00:00:00
FILE "08 - Tregor song.flac" WAVE
TRACK 08 AUDIO
TITLE "Tregor song"
PERFORMER "Alban Darche, Gado Gabor, Sebastien Boisseau"
ISRC HUA150816408
REM REPLAYGAIN_TRACK_GAIN -4.03 dB
REM REPLAYGAIN_TRACK_PEAK 0.993439
INDEX 01 00:00:00
FILE "09 - La conjuration des imbeciles (A confederacy of dunces).flac" WAVE
TRACK 09 AUDIO
TITLE "A confederacy of dunces"
PERFORMER "Alban Darche, Gado Gabor, Sebastien Boisseau"
ISRC HUA150816409
REM REPLAYGAIN_TRACK_GAIN -2.69 dB
REM REPLAYGAIN_TRACK_PEAK 0.993317
INDEX 01 00:00:00
FILE "10 - Ecorces.flac" WAVE
TRACK 10 AUDIO
TITLE "Ecorces"
PERFORMER "Alban Darche, Gado Gabor, Sebastien Boisseau"
ISRC HUA150816410
REM REPLAYGAIN_TRACK_GAIN -1.96 dB
REM REPLAYGAIN_TRACK_PEAK 0.797302
INDEX 01 00:00:00
FILE "11 - Traitre humanoide (Anagram of Matthieu Donarier).flac" WAVE
TRACK 11 AUDIO
TITLE "Traitre humanoide (Anagram of Matthieu Donarier)"
PERFORMER "Alban Darche, Gado Gabor, Sebastien Boisseau"
ISRC HUA150816411
REM REPLAYGAIN_TRACK_GAIN -3.89 dB
REM REPLAYGAIN_TRACK_PEAK 0.993347
INDEX 01 00:00:00
 
Об альбоме (сборнике)
Herewith two records released at about the same time, on the same label (Hungary's Budapest Music Center), both prominently featuring Hungarian guitarist Gábor Gadó. If, however, it's pleasing to play the discs side by side—and it really is—it's as much because of the two records' differences as their similarities.
Budapest Concerts is a concert recording by a small group; Lung-gom-pa, meanwhile, is a studio date by a large and varied ensemble. But the most significant distinction is that the former is a free-jazz performance, while the latter is elaborately composed. And the most interesting thing, perhaps, is that the free-jazz record makes for far "easier" listening, flying in the face of expectations.
The Franco-Hungarian trio performs a series of free-jazz pieces, each based on the slightest of sketches. In general, the drumless format produces a music of gentle exhalation, atmospheric and at times filmic (as on the stop-go waltz tribute to Tim Burton).
Saxophonist Darche is responsible for much of the recording's gentle beauty. Though his avant-garde credentials are nowhere in doubt, he nevertheless approaches a melodic idea as though he were Paul Quinichette, or, better still, Zoot Sims: open, approachable and with a vague sense of swing.
Guitarist Gadó, if anything, is even more open, approachable and swinging. On both records under review he frequently deploys pretty sound washes very much in the style of Bill Frisell. Like the French guitarist Manu Codjia, however, Gadó seems to conceive of these moments as the quiet end of a musical spectrum centered on considerably rowdier sounds than Frisell's.
The generally sinuous sound of the record is interrupted, effectively, by the agitated climax that occurs in the middle of "Tregor Song," with Gadó's guitar recalling Sonny Sharrock's work with Last Exit and Boisseau providing a choppy percussion with his bass. This percussive element is magnified in "La Conjuration des imbéciles / A Confederacy Of Dunces," with what might be Darche's saxophone slaps and squeaks, as well as borderline-funky guitar-bass interaction. Sinuousity returns for the two final cuts.
По всем вопросам пишите личное сообщение пользователю M0p94ok.
18:52
167
Нет комментариев. Ваш будет первым!