Вы используете незарегистрированную версию компонента "Вкладки"!

Поиск

(Avant-Garde, Modern Creative, Label Bleu) Michel Portal (w/ Dave Liebman, Harry Pepl, Mino Cinelu, Jean-Francois Jenny Clark, Jack DeJohnette) - Men's Land - 1987, FLAC (tracks+.cue), lossless

(Avant-Garde, Modern Creative, Label Bleu) Michel Portal (w/ Dave Liebman, Harry Pepl, Mino Cinelu, Jean-Francois Jenny Clark, Jack DeJohnette) - Men's Land - 1987, FLAC (tracks+.cue), lossless
Треклист:
Michel Portal / Men's Land
Жанр: Avant-Garde, Modern Creative, Label Bleu
Страна-производитель диска: France
Год издания: 1987
Издатель (лейбл): Label Bleu
Номер по каталогу: LBLC 6513
Аудиокодек: FLAC (*.flac)
Тип рипа: tracks+.cue
Битрейт аудио: lossless
Продолжительность: 48:46
Источник (релизер): Max Monteiro
Наличие сканов в содержимом раздачи: да
Треклист:
1. Ahmad the Terrible (Jack DeJohnette) 12:47
2. Men’s Land (Mino Cinelu / Michel Portal) 9:07
3. Pastor (Michel Portal) 8:42
4. Easy’Nuff (Dave Liebman) 18:10
Enregistré en public le 30 mai 1987 dans le cadre du 7e Festival international de jazz d’Amiens au Grand Théâtre de la Maison de la culture d’Amiens.
1. Ahmad the Terrible
Dave Liebman – saxophone soprano
Michel Portal – saxophone ténor
Harry Pepl - guitare
2. Men’s Land
Michel Portal – clarinette basse
Mino Cinelu – percussions
3. Pastor
Jean-François Jenny Clark – basse
Harry Pepl – guitare
4. Easy’Nuff
Michel Portal – clarinette basse
Dave Liebman – saxophone soprano
Jack DeJohnette – batterie
 
Лог создания рипа
Exact Audio Copy V1.0 beta 3 from 29. August 2011
EAC extraction logfile from 9. October 2013, 14:59
Michel Portal / Men's Land
Used drive : SlimtypeeNAU508 5 Adapter: 1 ID: 0
Read mode : Secure
Utilize accurate stream : Yes
Defeat audio cache : Yes
Make use of C2 pointers : No
Read offset correction : 6
Overread into Lead-In and Lead-Out : No
Fill up missing offset samples with silence : Yes
Delete leading and trailing silent blocks : No
Null samples used in CRC calculations : Yes
Used interface : Native Win32 interface for Win NT & 2000
Gap handling : Appended to previous track
Used output format : User Defined Encoder
Selected bitrate : 768 kBit/s
Quality : High
Add ID3 tag : No
Command line compressor : C:\Program Files (x86)\Exact Audio Copy\Flac\flac.exe
Additional command line options : -8 -V -T "ARTIST=%artist%" -T "TITLE=%title%" -T "ALBUM=%albumtitle%" -T "DATE=%year%" -T "TRACKNUMBER=%tracknr%" -T "GENRE=%genre%" -T "PERFORMER=%albuminterpret%" -T "COMPOSER=%composer%" %haslyrics%--tag-from-file=LYRICS="%lyricsfile%"%haslyrics% -T "ALBUMARTIST=%albumartist%" -T "DISCNUMBER=%cdnumber%" -T "TOTALDISCS=%totalcds%" -T "TOTALTRACKS=%numtracks%" -T "COMMENT=%comment%" %source% -o %dest%
TOC of the extracted CD
Track | Start | Length | Start sector | End sector
---------------------------------------------------------
1 | 0:00.00 | 12:47.30 | 0 | 57554
2 | 12:47.30 | 9:06.50 | 57555 | 98554
3 | 21:54.05 | 8:42.20 | 98555 | 137724
4 | 30:36.25 | 18:10.08 | 137725 | 219482
Track 1
Filename C:\EAC rips\01 - Ahmad the Terrible.wav
Pre-gap length 0:00:02.00
Peak level 100.0 %
Extraction speed 2.6 X
Track quality 100.0 %
Test CRC 12C32FE3
Copy CRC 12C32FE3
Accurately ripped (confidence 2) [3F23214F] (AR v2)
Copy OK
Track 2
Filename C:\EAC rips\02 - Men's Land.wav
Peak level 99.4 %
Extraction speed 3.1 X
Track quality 100.0 %
Test CRC 2831CD4D
Copy CRC 2831CD4D
Accurately ripped (confidence 2) [C7D54F99] (AR v2)
Copy OK
Track 3
Filename C:\EAC rips\03 - Pastor.wav
Peak level 97.3 %
Extraction speed 3.5 X
Track quality 100.0 %
Test CRC 661AE4C0
Copy CRC 661AE4C0
Accurately ripped (confidence 2) [8F38AD53] (AR v2)
Copy OK
Track 4
Filename C:\EAC rips\04 - Easy'Nuff.wav
Peak level 99.6 %
Extraction speed 4.2 X
Track quality 100.0 %
Test CRC AE081D63
Copy CRC AE081D63
Accurately ripped (confidence 2) [11E3700C] (AR v2)
Copy OK
All tracks accurately ripped
No errors occurred
End of status report
---- CUETools DB Plugin V2.1.4
[CTDB TOCID: 5HXl0CxoCxNU_3gO8m4Qy3Q.k6o-] found
Submit result: 5HXl0CxoCxNU_3gO8m4Qy3Q.k6o- has been confirmed
Track | CTDB Status
1 | (3/3) Accurately ripped
2 | (3/3) Accurately ripped
3 | (3/3) Accurately ripped
4 | (3/3) Accurately ripped
==== Log checksum 65E46FC2F7E93406A38E75269DFA8342F62E2CEB43B81D316E87C96C5EA09A3E ====
 
Содержание индексной карты (.CUE)
REM GENRE Jazz
REM DATE 1987
REM DISCID 370B6E04
REM COMMENT "ExactAudioCopy v1.0b3"
PERFORMER "Michel Portal"
TITLE "Men's Land"
FILE "01 - Ahmad the Terrible.wav" WAVE
TRACK 01 AUDIO
TITLE "Ahmad the Terrible"
PERFORMER "Michel Portal"
INDEX 01 00:00:00
FILE "02 - Men's Land.wav" WAVE
TRACK 02 AUDIO
TITLE "Men's Land"
PERFORMER "Michel Portal"
INDEX 01 00:00:00
FILE "03 - Pastor.wav" WAVE
TRACK 03 AUDIO
TITLE "Pastor"
PERFORMER "Michel Portal"
INDEX 01 00:00:00
FILE "04 - Easy'Nuff.wav" WAVE
TRACK 04 AUDIO
TITLE "Easy'Nuff"
PERFORMER "Michel Portal"
INDEX 01 00:00:00
Доп. информация: Lithographie de Pierre Alechinsky.
Any questions -> support@pro-jazz.com. По всем вопросам пишите -> support@pro-jazz.com
18:52
197
Нет комментариев. Ваш будет первым!