Поиск

(Minimal, Experimental, e2e) Pierre Bastien - Mecanoid - 2001, APE (image+.cue), lossless

(Minimal, Experimental, e2e) Pierre Bastien - Mecanoid - 2001, APE (image+.cue), lossless
Треклист:
Pierre Bastien - Mecanoid
Жанр: Minimal, Experimental
Год выпуска диска: 2001
Производитель диска: England
Аудио кодек: APE
Тип рипа: image+.cue
Битрейт аудио: lossless
Трэклист:
1. Damn Mad
2. Revolt Lover
3. No Eon
4. Gnu Lung
5. Tender Red Net
6. Revel Ever
7. Avid Diva
8. Deep Speed
9. Sore Eros
10. Rev Over
Доп. информация:
Label: Rephlex
 
EAC log
Exact Audio Copy V0.99 prebeta 4 from 23. January 2008
EAC extraction logfile from 16. September 2008, 18:21
Pierre Bastien / Mecanoid
Used drive : PIONEER DVD-RW DVR-109 Adapter: 1 ID: 0
Read mode : Secure
Utilize accurate stream : Yes
Defeat audio cache : Yes
Make use of C2 pointers : No
Read offset correction : 48
Overread into Lead-In and Lead-Out : No
Fill up missing offset samples with silence : Yes
Delete leading and trailing silent blocks : No
Null samples used in CRC calculations : Yes
Used interface : Native Win32 interface for Win NT & 2000
Used output format : Monkey's Audio Lossless Encoder v3.99 DLL
Sample format : Normal Lossless Compression
TOC of the extracted CD
Track | Start | Length | Start sector | End sector
---------------------------------------------------------
1 | 0:00.00 | 3:38.35 | 0 | 16384
2 | 3:38.35 | 4:01.50 | 16385 | 34509
3 | 7:40.10 | 3:37.69 | 34510 | 50853
4 | 11:18.04 | 5:01.48 | 50854 | 73476
5 | 16:19.52 | 9:22.52 | 73477 | 115678
6 | 25:42.29 | 3:22.43 | 115679 | 130871
7 | 29:04.72 | 4:24.39 | 130872 | 150710
8 | 33:29.36 | 4:47.25 | 150711 | 172260
9 | 38:16.61 | 3:18.29 | 172261 | 187139
10 | 41:35.15 | 4:34.14 | 187140 | 207703
Range status and errors
Selected range
Filename D:\Torrent\Pierre Bastien - Mecanoid (2001)\Bastien, Pierre - Mecanoid.ape
Peak level 98.8 %
Range quality 99.9 %
Copy CRC 8A9FC4F0
Copy OK
No errors occurred
AccurateRip summary
Track 1 not present in database
Track 2 not present in database
Track 3 not present in database
Track 4 not present in database
Track 5 not present in database
Track 6 not present in database
Track 7 not present in database
Track 8 not present in database
Track 9 not present in database
Track 10 not present in database
None of the tracks are present in the AccurateRip database
End of status report
Приватный:
Нет (DHT включён)
Размер:
215.77 Мб (226,253,833 байт) » файлов: 3
Участники:
0 раздают, 0 качают (0 участников всего)
Внешние участники:
2 раздают, 1 качают (3 участников всего) [ Обновить ]
No seeders - write a personal message to user M0p94ok. Нет сидеров - пишите личное сообщение пользователю M0p94ok.
03:34
47
Нет комментариев. Ваш будет первым!