Поиск

(avantgarde, free-jazz) Anthony Braxton, Evan Parker, Paul Rutherford - Trio (London) - 1993, FLAC (image+.cue), lossless

Треклист:
Anthony Braxton, Evan Parker, Paul Rutherford - Trio (London)
Жанр: avantgarde, free-jazz
Год выпуска диска: 1993
Производитель диска: UK (Leo Records)
Аудио кодек: FLAC
Тип рипа: image+.cue
Битрейт аудио: lossless
Продолжительность: 53.35
Трэклист:
1. The Honker
2. Arkanther
3. Axtarkrut
4. Vanuthrax
5. The Breaker
Доп. информация:
 
eac log
Exact Audio Copy V0.99 prebeta 4 from 23. January 2008
Отчёт EAC об извлечении, выполненном 15. сентября 2008, 22:48
Anthony Braxton-Evan Parker-Paul Rutherford / Trio (London) 1993
Дисковод: Optiarc DVD RW AD-7170A Adapter: 0 ID: 1
Режим чтения : Достоверность
Использование точного потока : Да
Отключение кэша аудио : Да
Использование указателей C2 : Нет
Коррекция смещения при чтении : 48
Способность читать области Lead-in и Lead-out : Нет
Заполнение пропущенных сэмплов тишиной : Да
Удаление блоков с тишиной в начале и конце : Нет
При вычислениях CRC использовались нулевые сэмплы : Да
Интерфейс : Встроенный Win32-интерфейс для Win NT/2000
Выходной формат : Пользовательский кодировщик
Выбранный битрейт : 768 kBit/s
Качество : Высокий
Добавление ID3-тэга : Нет
Утилита сжатия : D:\Program Files\Exact Audio Copy\FLAC\FLAC.EXE
Дополнительные параметры : -6 -V -T "ARTIST=%a" -T "TITLE=%t" -T "ALBUM=%g" -T "DATE=%y" -T "TRACKNUMBER=%n" -T "GENRE=%m" -T "COMMENT=%e" %s -o %d
TOC извлечённого CD
Трек | Старт | Длительность | Начальный сектор | Конечный сектор
---------------------------------------------------------------------
1 | 0:00.32 | 18:05.65 | 32 | 81471
2 | 18:06.22 | 10:38.28 | 81472 | 129349
3 | 28:44.50 | 8:23.00 | 129350 | 167074
4 | 37:07.50 | 9:49.05 | 167075 | 211254
5 | 46:56.55 | 6:38.35 | 211255 | 241139
Характеристики диапазона извлечения и сообщения об ошибках
Выбранный диапазон
Имя файла D:\EAC\Anthony Braxton-Evan Parker-Paul Rutherford - Trio (London) 1993.wav
Пиковый уровень 92.5 %
Качество диапазона 100.0 %
CRC копии 5601E229
Копирование... OK
Ошибок не произошло
AccurateRip: сводка
Трек 1 нет в базе данных
Трек 2 нет в базе данных
Трек 3 нет в базе данных
Трек 4 нет в базе данных
Трек 5 нет в базе данных
Ни одного трека нет в базе AccurateRip
Конец отчёта
Приватный:
Нет (DHT включён)
Размер:
189.60 Мб (198,812,430 байт) » файлов: 3
Участники:
0 раздают, 0 качают (0 участников всего)
Внешние участники:
2 раздают, 1 качают (3 участников всего) [ Обновить ]
No seeders - write a personal message to user M0p94ok. Нет сидеров - пишите личное сообщение пользователю M0p94ok.
03:33
51
Нет комментариев. Ваш будет первым!