Поиск

(Avant-Garde Jazz, Free Funk) James Blood Ulmer - Revealing - 1990, FLAC (tracks), lossless

(Avant-Garde Jazz, Free Funk) James Blood Ulmer - Revealing - 1990, FLAC (tracks), lossless
Треклист:
James Blood Ulmer - Revealing
Жанр: Avant-Garde Jazz, Free Funk
Год выпуска диска: 1990
Производитель диска: USA (In + Out)
Аудио кодек: FLAC
Тип рипа: tracks
Битрейт аудио: lossless
Продолжительность: 0:36:26
1. Revealing 08:15
2. Raw Groove 08:45
3. Overtime 09:01
4: Love Nest 10:05
James 'Blood' Ulmer - guitar
George Adams - sax, bass clarinet (on 'Love Nest')
Cecil McBee - bass
Doug Hammond - drums
All compositions by James 'Blood' Ulmer
Produced by James 'Blood' Ulmer
Executive Producers F. Kleinschmidt and J. Schwab
Recorded 1977 in New York City
 
LOG
EAC extraction logfile from 8. September 2008, 12:51 for CD
James Blood Ulmer / Revealing
Used drive : TOSHIBA DVD-ROM SD-M1612 Adapter: 1 ID: 0
Read mode : Secure with NO C2, accurate stream, disable cache
Read offset correction : -472
Overread into Lead-In and Lead-Out : No
Used output format : C:\Program Files\Exact Audio Copy\flac.exe (User Defined Encoder)
224 kBit/s
Additional command line options : -8 -V -T "artist=%a" -T "title=%t" -T "album=%g" -T "date=%y" -T "tracknumber=%n" -T "genre=%m" %s
Other options :
Fill up missing offset samples with silence : Yes
Delete leading and trailing silent blocks : No
Installed external ASPI interface
Track 1
Filename H:\CD RIP\James Blood Ulmer - Revealing\01 - Revealing.wav
Pre-gap length 0:00:02.00
Peak level 87.6 %
Track quality 100.0 %
Test CRC 3E60C7DB
Copy CRC 3E60C7DB
Copy OK
Track 2
Filename H:\CD RIP\James Blood Ulmer - Revealing\02 - Raw Groove.wav
Pre-gap length 0:00:03.62
Peak level 94.4 %
Track quality 100.0 %
Test CRC C77311CF
Copy CRC C77311CF
Copy OK
Track 3
Filename H:\CD RIP\James Blood Ulmer - Revealing\03 - Overtime.wav
Pre-gap length 0:00:03.62
Peak level 100.0 %
Track quality 100.0 %
Test CRC 4DCD83C4
Copy CRC 4DCD83C4
Copy OK
Track 4
Filename H:\CD RIP\James Blood Ulmer - Revealing\04 - Love Nest.wav
Pre-gap length 0:00:05.25
Peak level 100.0 %
Track quality 100.0 %
Test CRC 9174A356
Copy CRC 9174A356
Copy OK
No errors occured
End of status report
Приватный:
Нет (DHT включён)
Размер:
222.97 Мб (233,800,786 байт) » файлов: 12
Участники:
0 раздают, 0 качают (0 участников всего)
Внешние участники:
2 раздают, 1 качают (3 участников всего) [ Обновить ]
No seeders - write a personal message to user M0p94ok. Нет сидеров - пишите личное сообщение пользователю M0p94ok.
03:32
51
Нет комментариев. Ваш будет первым!