Поиск

(Free-Jazz/Jazzcore/Noise-Rock) The Flying Luttenbachers - Systems Emerge From Complete Disorder - 2003, APE (image+.cue), lossless

(Free-Jazz/Jazzcore/Noise-Rock) The Flying Luttenbachers - Systems Emerge From Complete Disorder - 2003, APE (image+.cue), lossless
Треклист:
The Flying Luttenbachers - Systems Emerge From Complete Disorder
Жанр: Free-Jazz/Jazzcore/Noise-Rock
Год выпуска диска: 2003
Аудио кодек: APE
Тип рипа: image+.cue
Битрейт аудио: lossless
Продолжительность: 0:45:17
Трэклист:
01. Entropic Field/Total Disorder/Cellular Chaos
02. Kkringg Beyond Nggggg
03. Kkringg Number One
04. Kkringg Number Two
05. Thrumm'd HTE (for M)
06. Thorned Lattice (Parts One and Two)
07. Rise of the Iridescent Behemoth
Доп. информация:
http://allmusic.com/cg/amg.dll?p=amg&sql=10:jvfrxq8aldde
 
Отчёт EAC
Exact Audio Copy V0.99 prebeta 4 from 23. January 2008
EAC extraction logfile from 15. September 2008, 0:43
The Flying Luttenbachers / Systems Emerge From Complete Disorder
Used drive : _NEC DVD_RW ND-3500AG Adapter: 0 ID: 2
Read mode : Secure
Utilize accurate stream : Yes
Defeat audio cache : Yes
Make use of C2 pointers : No
Read offset correction : 48
Overread into Lead-In and Lead-Out : No
Fill up missing offset samples with silence : Yes
Delete leading and trailing silent blocks : No
Null samples used in CRC calculations : Yes
Used interface : Native Win32 interface for Win NT & 2000
Used output format : Internal WAV Routines
Sample format : 44.100 Hz; 16 Bit; Stereo
TOC of the extracted CD
Track | Start | Length | Start sector | End sector
---------------------------------------------------------
1 | 0:00.00 | 1:06.24 | 0 | 4973
2 | 1:06.24 | 4:13.00 | 4974 | 23948
3 | 5:19.24 | 4:30.28 | 23949 | 44226
4 | 9:49.52 | 2:34.15 | 44227 | 55791
5 | 12:23.67 | 5:02.12 | 55792 | 78453
6 | 17:26.04 | 7:38.21 | 78454 | 112824
7 | 25:04.25 | 20:13.31 | 112825 | 203830
Range status and errors
Selected range
Filename C:\EAC\The Flying Luttenbachers - Systems Emerge From Complete Disorder\The Flying Luttenbachers - Systems Emerge From Complete Disorder.wav
Peak level 100.0 %
Range quality 100.0 %
Copy CRC AC5FDF1D
Copy OK
No errors occurred
End of status report
Приватный:
Нет (DHT включён)
Размер:
342.40 Мб (359,034,311 байт) » файлов: 3
Участники:
0 раздают, 0 качают (0 участников всего)
Внешние участники:
3 раздают, 1 качают (4 участников всего) [ Обновить ]
No seeders - write a personal message to user M0p94ok. Нет сидеров - пишите личное сообщение пользователю M0p94ok.
03:32
92
Нет комментариев. Ваш будет первым!