Поиск

(Free Improvisation) Thurston Moore, Jim O`Rourke & Mats Gustafsson - Diskaholics Anonymous Trio - 2001, APE (image+.cue), lossless

Треклист:
Thurston Moore, Jim O`Rourke & Mats Gustafsson - Diskaholics Anonymous Trio
Жанр: Free Improvisation
Год выпуска диска: 2001
Аудио кодек: APE
Тип рипа: image+.cue
Битрейт аудио: lossless
Продолжительность: 1:06:27
Трэклист:
1. Tree Collectors Of Bird Note (16:36)
2. Totally Gump (Gump Completist) (23:07)
3. Yellow Label Silence (26:43)
Доп. информация:
Mats Gustafsson: tubax, tenor saxophone, french flageolet
Jim O'Rourke: synth, computer
Thurston Moore: guitar
 
Отчёт EAC
Exact Audio Copy V0.99 prebeta 4 from 23. January 2008
EAC extraction logfile from 15. September 2008, 0:20
Thurston Moore, Jim O`Rourke & Mats Gustafsson / Diskaholics Anonymous Trio
Used drive : _NEC DVD_RW ND-3500AG Adapter: 0 ID: 2
Read mode : Secure
Utilize accurate stream : Yes
Defeat audio cache : Yes
Make use of C2 pointers : No
Read offset correction : 48
Overread into Lead-In and Lead-Out : No
Fill up missing offset samples with silence : Yes
Delete leading and trailing silent blocks : No
Null samples used in CRC calculations : Yes
Used interface : Native Win32 interface for Win NT & 2000
Used output format : Internal WAV Routines
Sample format : 44.100 Hz; 16 Bit; Stereo
TOC of the extracted CD
Track | Start | Length | Start sector | End sector
---------------------------------------------------------
1 | 0:00.00 | 16:36.03 | 0 | 74702
2 | 16:36.03 | 23:07.30 | 74703 | 178757
3 | 39:43.33 | 26:43.50 | 178758 | 299032
Range status and errors
Selected range
Filename C:\EAC\Evan Parker, Paul Lytton, Paul Rutherford, Hans Schneider - Waterloo 1985\Diskaholics Anonymous Trio 2001\Diskaholics Anonymous Trio 2001.wav
Peak level 100.0 %
Range quality 99.9 %
Copy CRC 4676F807
Copy OK
No errors occurred
End of status report
Приватный:
Нет (DHT включён)
Размер:
307.46 Мб (322,390,944 байт) » файлов: 3
Участники:
0 раздают, 0 качают (0 участников всего)
Внешние участники:
2 раздают, 1 качают (3 участников всего) [ Обновить ]
No seeders - write a personal message to user M0p94ok. Нет сидеров - пишите личное сообщение пользователю M0p94ok.
03:31
51
Нет комментариев. Ваш будет первым!