Поиск

(Avant-Garde,Modern Composition) Keshavan Maslak,Katsuyuki Itakura - Excuse Me, Mr. Satie - 1994, APE (image+.cue), lossless

(Avant-Garde,Modern Composition) Keshavan Maslak,Katsuyuki Itakura - Excuse Me, Mr. Satie - 1994, APE (image+.cue), lossless
Треклист:
Keshavan Maslak, Katsuyuki Itakura - Excuse Me, Mr. Satie
Жанр: Avant-Garde,Modern Composition
Год выпуска диска: 1994
Производитель диска: c & p Leo Records
Аудио кодек: APE
Тип рипа: image+.cue
Битрейт аудио: lossless
Продолжительность: 61:40
Трэклист:
1 Gnossiennes- Satie 4:26
2 Mo Excuse- Millions 3:46
3 Gnossiennes- Satie 4:00 4 I Like It- Millions 3:09
5 Gnossiennes- Satie 3:40
6 Excuse Ant- Itakura 1:48
7 Le Piege de Meduse- Satie 2:11
8 I Had a Spring- Itakura 2:43
9 Le Piege de Meduse- Satie 2:22
10 Funny Frog- Itakura 3:16
11 Le Piege de Meduse- Satie 1:28
12 Song for the Animals- Millions 5:27
13 Le Piege de Meduse- Satie 2:20
14 Same Thing With the Palm Trees- Millions 5:02
15 Le Piege de Meduse- Satie 1:29
16 Child by Humor- Itakura 5:42
17 Le Piege de Meduse- Satie 1:44
18 I Should Ask- Itakura 3:18
19 Le Piege de Medusa- Satie 1:57
20 Excuse Me for Being Boring- Millions 1:39
Keshavan Maslak(Kenny Millions)- clarinet,liner notes
Katsuyuki Itakura- piano
Erik Satie- liner notes
Доп. информация: Рип сделан собственноручно,сканы обложки вутри.
ЕАС пишет:"Подозрительная позиция 0:30:12Подозрительная позиция 0:58:27Подозрительная позиция 1:00:06"-диск царапаный,но на слух не слышно...
 
Отчёт EAC об извлечении, выполненном 12. сентября 2008
Exact Audio Copy V0.99 prebeta 3 from 28. July 2007
Отчёт EAC об извлечении, выполненном 12. сентября 2008, 19:44
Keshavan Maslak/Katsuyuki Itakura / Excuse Me, Mr. Satie
Дисковод: Optiarc DVD RW AD-7203A Adapter: 0 ID: 1
Режим чтения : Достоверность
Использование точного потока : Да
Отключение кэша аудио : Да
Использование указателей C2 : Нет
Коррекция смещения при чтении : 48
Способность читать области Lead-in и Lead-out : Нет
Заполнение пропущенных сэмплов тишиной : Да
Удаление блоков с тишиной в начале и конце : Нет
При вычислениях CRC использовались нулевые сэмплы : Да
Интерфейс : Установленный внешний ASPI-интерфейс
Выходной формат : Monkey's Audio Lossless Encoder v3.99 DLL
Формат сэмплов : Normal Lossless Compression
TOC извлечённого CD
Трек | Старт | Длительность | Начальный сектор | Конечный сектор
---------------------------------------------------------------------
1 | 0:00.32 | 4:26.35 | 32 | 20016
2 | 4:26.67 | 3:46.73 | 20017 | 37039
3 | 8:13.65 | 4:00.22 | 37040 | 55061
4 | 12:14.12 | 3:09.35 | 55062 | 69271
5 | 15:23.47 | 3:40.45 | 69272 | 85816
6 | 19:04.17 | 1:48.68 | 85817 | 93984
7 | 20:53.10 | 2:11.32 | 93985 | 103841
8 | 23:04.42 | 2:43.28 | 103842 | 116094
9 | 25:47.70 | 2:22.50 | 116095 | 126794
10 | 28:10.45 | 3:16.25 | 126795 | 141519
11 | 31:26.70 | 1:28.07 | 141520 | 148126
12 | 32:55.02 | 5:27.35 | 148127 | 172686
13 | 38:22.37 | 2:20.00 | 172687 | 183186
14 | 40:42.37 | 5:02.60 | 183187 | 205896
15 | 45:45.22 | 1:29.63 | 205897 | 212634
16 | 47:15.10 | 5:42.00 | 212635 | 238284
17 | 52:57.10 | 1:44.57 | 238285 | 246141
18 | 54:41.67 | 3:18.45 | 246142 | 261036
19 | 58:00.37 | 1:57.73 | 261037 | 269884
20 | 59:58.35 | 1:39.40 | 269885 | 277349
Характеристики диапазона извлечения и сообщения об ошибках
Выбранный диапазон
Имя файла C:\Documents and Settings\1\Рабочий стол\Keshavan Maslak Katsuyuki Itakura - Excuse Me, Mr. Satie.ape
Подозрительная позиция 0:30:12
Подозрительная позиция 0:58:27
Подозрительная позиция 1:00:06
Пиковый уровень 90.9 %
Качество диапазона 99.8 %
CRC теста 8EEE0A89
CRC копии F6DD6DC1
Копирование завершено
Были ошибки
AccurateRip: сводка
Трек 1 нет в базе данных
Трек 2 нет в базе данных
Трек 3 нет в базе данных
Трек 4 нет в базе данных
Трек 5 нет в базе данных
Трек 6 нет в базе данных
Трек 7 нет в базе данных
Трек 8 нет в базе данных
Трек 9 нет в базе данных
Трек 10 нет в базе данных
Трек 11 нет в базе данных
Трек 12 нет в базе данных
Трек 13 нет в базе данных
Трек 14 нет в базе данных
Трек 15 нет в базе данных
Трек 16 нет в базе данных
Трек 17 нет в базе данных
Трек 18 нет в базе данных
Трек 19 нет в базе данных
Трек 20 нет в базе данных
Ни одного трека нет в базе AccurateRip
Конец отчёта
 
Review by Thom Jurek
Review by Thom Jurek
OK. Two jazz/free improv geeks decide to take the original big daddy of the avant-garde to lunch under the pretense they want to discuss his compositions. They proceed to get him drunk and steal his music, which they discover they can't read correctly because of its strange notation. They decide to play it anyway, throwing in their own touches to add "color" to the proceedings. Not really, but it could have happened. American Keshavak Maslak (aka Kenny Millions) and Japanese Katsuyuki Itakura (on reeds and piano, respectively) have taken a substantial portion of short compositions by Erik Satie, transposed them for piano and soprano saxophone or clarinet, inserted a few of their own gems, and generally created something new and delightful from the wreckage caused by their well-meaning musical terrorism. They've kept Satie's minimal approach and mysterious lyricism intact on most pieces, but have extrapolated their themes to include new cadenzas -- especially where there weren't any to begin with -- and push tempos and harmonies around to bring them into a setting that resembles something more akin to chamber jazz played in the avant-garde. A recording like this could well have been a pretentious disaster, but it's far from that because both men have a healthy sense of humor and a genuine love for Satie's music; they're not out to improve it, they're out to enjoy playing with it and feel its inherent beauty. Their own tunes are another story and there are plenty of those too, given that they're interspersed between every other Satie composition. There's plenty going on in them -- perhaps too much -- and the humorous sense the musicians offer in Satie's music goes overboard in their own (though there is some serious scalar and chromatic investigation, particularly in Itakura's music). After a while though, you will wish the principals had left their music off this outing -- since it pales in comparison -- and stuck with the Satie thematic. But that's the beauty of a CD player: You can program out the stuff you don't want to hear. It almost worked.
Приватный:
Нет (DHT включён)
Размер:
227.67 Мб (238,729,041 байт) » файлов: 8
Участники:
0 раздают, 0 качают (0 участников всего)
Внешние участники:
1 раздают, 0 качают (1 участников всего) [ Обновить ]
No seeders - write a personal message to user M0p94ok. Нет сидеров - пишите личное сообщение пользователю M0p94ok.
03:30
55
Нет комментариев. Ваш будет первым!