Поиск

(Experimental/Tzadik New Japan) Otomo Yoshihide - Anode - 2001, APE (image+.cue), lossless

(Experimental/Tzadik New Japan) Otomo Yoshihide - Anode - 2001, APE (image+.cue), lossless
Треклист:
Otomo Yoshihide - Anode
Жанр: Experimental/Tzadik New Japan
Год выпуска диска: 2001
Аудио кодек: APE
Тип рипа: image+.cue
Битрейт аудио: lossless
Продолжительность: 0:54:28
Трэклист:
1. Anode 1
2. Anode 2
3. Anode 3
4. Anode 1 Variation
Доп. информация: http://allmusic.com/cg/amg.dll?p=amg&sql=10:kcfyxqu0ldke
 
Отчет EAC
Exact Audio Copy V0.99 prebeta 4 from 23. January 2008
EAC extraction logfile from 19. September 2008, 0:41
Otomo Yoshihide / Anode
Used drive : _NEC DVD_RW ND-3500AG Adapter: 0 ID: 2
Read mode : Secure
Utilize accurate stream : Yes
Defeat audio cache : Yes
Make use of C2 pointers : No
Read offset correction : 48
Overread into Lead-In and Lead-Out : No
Fill up missing offset samples with silence : Yes
Delete leading and trailing silent blocks : No
Null samples used in CRC calculations : Yes
Used interface : Native Win32 interface for Win NT & 2000
Used output format : Internal WAV Routines
Sample format : 44.100 Hz; 16 Bit; Stereo
TOC of the extracted CD
Track | Start | Length | Start sector | End sector
---------------------------------------------------------
1 | 0:00.00 | 10:36.55 | 0 | 47754
2 | 10:36.55 | 13:04.25 | 47755 | 106579
3 | 23:41.05 | 15:03.12 | 106580 | 174316
4 | 38:44.17 | 15:44.25 | 174317 | 245141
Range status and errors
Selected range
Filename C:\EAC\Otomo Yoshihide - Anode\Otomo Yoshihide - Anode.wav
Peak level 97.7 %
Range quality 99.9 %
Copy CRC B05E6D70
Copy OK
No errors occurred
End of status report
Приватный:
Нет (DHT включён)
Размер:
314.93 Мб (330,226,926 байт) » файлов: 3
Участники:
0 раздают, 0 качают (0 участников всего)
Внешние участники:
1 раздают, 0 качают (1 участников всего) [ Обновить ]
No seeders - write a personal message to user M0p94ok. Нет сидеров - пишите личное сообщение пользователю M0p94ok.
03:34
59
Нет комментариев. Ваш будет первым!