Поиск

(Free Jazz) William Parker Trio - Painter's Spring - 2000, APE (image+.cue), lossless

(Free Jazz) William Parker Trio - Painter's Spring - 2000, APE (image+.cue), lossless
Треклист:
William Parker Trio - Painter's Spring
Жанр: Free Jazz
Год выпуска диска: 2000
Аудио кодек: APE
Тип рипа: image+.cue
Битрейт аудио: lossless
Продолжительность: 0:44:45
Трэклист:
1. Foundation #1
2. Come Sunday
3. Blues for Percy
4. Flash
5. There is a Balm in Gilead
6. Foundation #4
7. Foundation #2
8. Trilog
Доп. информация: http://allmusic.com/cg/amg.dll?p=amg&sql=10:gnfwxqtkld6e
 
Отчет EAC
Exact Audio Copy V0.99 prebeta 4 from 23. January 2008
EAC extraction logfile from 19. September 2008, 1:35
William Parker Trio / Painter's Spring
Used drive : _NEC DVD_RW ND-3500AG Adapter: 0 ID: 2
Read mode : Secure
Utilize accurate stream : Yes
Defeat audio cache : Yes
Make use of C2 pointers : No
Read offset correction : 48
Overread into Lead-In and Lead-Out : No
Fill up missing offset samples with silence : Yes
Delete leading and trailing silent blocks : No
Null samples used in CRC calculations : Yes
Used interface : Native Win32 interface for Win NT & 2000
Used output format : Internal WAV Routines
Sample format : 44.100 Hz; 16 Bit; Stereo
TOC of the extracted CD
Track | Start | Length | Start sector | End sector
---------------------------------------------------------
1 | 0:00.00 | 7:47.12 | 0 | 35036
2 | 7:47.12 | 5:48.12 | 35037 | 61148
3 | 13:35.24 | 5:26.08 | 61149 | 85606
4 | 19:01.32 | 4:54.43 | 85607 | 107699
5 | 23:56.00 | 3:36.43 | 107700 | 123942
6 | 27:32.43 | 5:50.62 | 123943 | 150254
7 | 33:23.30 | 9:26.00 | 150255 | 192704
8 | 42:49.30 | 1:55.49 | 192705 | 201378
Range status and errors
Selected range
Filename C:\EAC\William Parker Trio - Painter's Spring\William Parker Trio - Painter's Spring.wav
Peak level 100.0 %
Range quality 99.4 %
Copy CRC C5A13CD7
Copy OK
No errors occurred
End of status report
Приватный:
Нет (DHT включён)
Размер:
232.99 Мб (244,312,572 байт) » файлов: 3
Участники:
0 раздают, 0 качают (0 участников всего)
Внешние участники:
1 раздают, 0 качают (1 участников всего) [ Обновить ]
No seeders - write a personal message to user M0p94ok. Нет сидеров - пишите личное сообщение пользователю M0p94ok.
03:35
64
Нет комментариев. Ваш будет первым!