Поиск

(Free Jazz) Last Exit (Brotzmann / Laswell / Sharrock / Jackson) - Iron Path - 1998, APE (image+.cue), lossless

(Free Jazz) Last Exit (Brotzmann / Laswell / Sharrock / Jackson) - Iron Path - 1998, APE (image+.cue), lossless
Треклист:
Last Exit (Brotzmann / Laswell / Sharrock / Jackson) - Iron Path
Жанр: Free Jazz
Год выпуска диска: 1998
Аудио кодек: APE
Тип рипа: image+.cue
Битрейт аудио: lossless
Продолжительность: 0:36:44
Трэклист:
01. Prayer
02. Iron Path
03. The Black Bat (for Aki Ikuta)
04. Marked for Death
05. The Fire Drum
06. Detonator
07. Sand Dancer
08. Cut and Run
09. Eye for an Eye
10. Devil's Rain
Доп. информация: http://allmusic.com/cg/amg.dll?p=amg&sql=10:kvfyxqrgld6e
 
Отчет EAC
Exact Audio Copy V0.99 prebeta 4 from 23. January 2008
EAC extraction logfile from 19. September 2008, 16:51
Last Exit / Iron Path
Used drive : _NEC DVD_RW ND-3500AG Adapter: 0 ID: 2
Read mode : Secure
Utilize accurate stream : Yes
Defeat audio cache : Yes
Make use of C2 pointers : No
Read offset correction : 48
Overread into Lead-In and Lead-Out : No
Fill up missing offset samples with silence : Yes
Delete leading and trailing silent blocks : No
Null samples used in CRC calculations : Yes
Used interface : Native Win32 interface for Win NT & 2000
Used output format : Internal WAV Routines
Sample format : 44.100 Hz; 16 Bit; Stereo
TOC of the extracted CD
Track | Start | Length | Start sector | End sector
---------------------------------------------------------
1 | 0:00.00 | 4:38.23 | 0 | 20872
2 | 4:38.23 | 3:28.17 | 20873 | 36489
3 | 8:06.40 | 4:33.18 | 36490 | 56982
4 | 12:39.58 | 2:20.40 | 56983 | 67522
5 | 15:00.23 | 4:21.37 | 67523 | 87134
6 | 19:21.60 | 3:47.33 | 87135 | 104192
7 | 23:09.18 | 1:55.40 | 104193 | 112857
8 | 25:04.58 | 2:30.30 | 112858 | 124137
9 | 27:35.13 | 4:54.30 | 124138 | 146217
10 | 32:29.43 | 4:15.22 | 146218 | 165364
Range status and errors
Selected range
Filename C:\EAC\Last Exit - Iron Path\Last Exit - Iron Path.wav
Peak level 96.6 %
Range quality 100.0 %
Copy CRC 9B7121EA
Copy OK
No errors occurred
End of status report
Приватный:
Нет (DHT включён)
Размер:
193.89 Мб (203,310,173 байт) » файлов: 3
Участники:
0 раздают, 0 качают (0 участников всего)
Внешние участники:
7 раздают, 2 качают (9 участников всего) [ Обновить ]
No seeders - write a personal message to user M0p94ok. Нет сидеров - пишите личное сообщение пользователю M0p94ok.
03:36
51
Нет комментариев. Ваш будет первым!