Поиск

(Free Improvisation) Peter Brotzmann, Misha Mengelberg, Han Bennink - 3 Points And A Mountain - 2000, APE (image+.cue), lossless

Треклист:
Peter Brotzmann, Misha Mengelberg, Han Bennink - 3 Points And A Mountain
Жанр: Free Improvisation
Год выпуска диска: 2000
Производитель диска: Germany
Аудио кодек: APE
Тип рипа: image+.cue
Битрейт аудио: lossless
Продолжительность: 1:16:54
Трэклист:
1 Flüchtige Bären (6:02)
Written-By - Mengelberg*
2 The Bar Seems To Vanish In The Distance (19:35)
Written-By - Brötzmann*
3 Milan-Milan! (5:00)
Written-By - Bennink*
4 Brötzmann (3:25)
Written-By - Mengelberg*
5 Gewidmet Frau Hauser (6:39)
Written-By - Bennink*
6 There And Zurück (13:12)
Written-By - Brötzmann*
7 Met Wel-Beleefde Groet Van De Kameel (5:21)
Written-By - Mengelberg*
8 3 Points And A Mountain (12:43)
Written-By - Brötzmann*
9 Potz Tausend, In's Blaue Hinein (4:55)
Written-By - Bennink*
Доп. информация: http://allmusic.com/cg/amg.dll?p=amg&sql=10:jvfwxqrgldse
 
Отчет EAC
Exact Audio Copy V0.99 prebeta 4 from 23. January 2008
EAC extraction logfile from 19. September 2008, 20:33
Peter Brotzmann, Misha Mengelberg, Han Bennink / 3 Points And A Mountain...Plus
Used drive : _NEC DVD_RW ND-3500AG Adapter: 0 ID: 2
Read mode : Secure
Utilize accurate stream : Yes
Defeat audio cache : Yes
Make use of C2 pointers : No
Read offset correction : 48
Overread into Lead-In and Lead-Out : No
Fill up missing offset samples with silence : Yes
Delete leading and trailing silent blocks : No
Null samples used in CRC calculations : Yes
Used interface : Native Win32 interface for Win NT & 2000
Used output format : Internal WAV Routines
Sample format : 44.100 Hz; 16 Bit; Stereo
TOC of the extracted CD
Track | Start | Length | Start sector | End sector
---------------------------------------------------------
1 | 0:00.00 | 6:01.62 | 0 | 27136
2 | 6:01.62 | 19:35.25 | 27137 | 115286
3 | 25:37.12 | 5:00.33 | 115287 | 137819
4 | 30:37.45 | 3:24.65 | 137820 | 153184
5 | 34:02.35 | 6:39.37 | 153185 | 183146
6 | 40:41.72 | 13:12.20 | 183147 | 242566
7 | 53:54.17 | 5:21.35 | 242567 | 266676
8 | 59:15.52 | 12:43.13 | 266677 | 323914
9 | 71:58.65 | 4:55.17 | 323915 | 346056
Range status and errors
Selected range
Filename C:\EAC\Peter Brotzmann, Misha Mengelberg, Han Bennink - 3 Points And A Mountain\Peter Brotzmann, Misha Mengelberg, Han Bennink - 3 Points And A Mountain...Plus.wav
Peak level 95.8 %
Range quality 100.0 %
Copy CRC 374BF7EA
Copy OK
No errors occurred
End of status report
Приватный:
Нет (DHT включён)
Размер:
335.71 Мб (352,017,711 байт) » файлов: 3
Участники:
0 раздают, 0 качают (0 участников всего)
Внешние участники:
3 раздают, 1 качают (4 участников всего) [ Обновить ]
No seeders - write a personal message to user M0p94ok. Нет сидеров - пишите личное сообщение пользователю M0p94ok.
03:36
59
Нет комментариев. Ваш будет первым!