Поиск

(Avant-Garde Jazz, Free Jazz) Anthony Braxton / Mario Pavone Quintet – Seven Standards - 1995, FLAC (tracks+.cue)

(Avant-Garde Jazz, Free Jazz) Anthony Braxton / Mario Pavone Quintet – Seven Standards - 1995, FLAC (tracks+.cue)
Треклист:
Anthony Braxton / Mario Pavone Quintet – Seven Standards 1995
Жанр: Jazz
Стиль: Avant-Garde Jazz, Free Jazz
Год выпуска диска: 1995
Производитель диска: Label: Knitting Factory Works, USA
Аудио кодек: FLAC
Тип рипа: tracks+.cue
Продолжительность: 1:05:32
Трэклист:
1. Dewey Square Parker 10:53
2. Autumn in New York Duke 9:02
3. All or Nothing at All Altman, Lawrence 5:03
4. Eronel Monk 8:27
5. These Foolish Things Link, Marvell, Strachey 10:46
6. The End of a Love Affair Redding 12:07
7. Straight Street Coltrane 9:14
Доп. информация:
Anthony Braxton (piano)
Mario Pavone (bass)
Thomas Chapin (saxes)
Dave Douglas (trumpet)
Pheeroan Ak-Laff (drums)
"Источник: demonoid.com (релизер jazzkazan)".
 
log EAC
EAC extraction logfile from 31. January 2008, 15:11 for CD
Anthony Braxton/Mario Pavone Quintet / Seven Standards 1995
Used drive : HL-DT-STDVDRAM GSA-H10N Adapter: 0 ID: 0
Read mode : Secure with NO C2, accurate stream, disable cache
Read offset correction : 667
Overread into Lead-In and Lead-Out : No
Used output format : C:\Program Files\FLAC\flac.exe (User Defined Encoder)
128 kBit/s
Additional command line options : -8 -V -T "ARTIST=%a" -T "TITLE=%t" -T "ALBUM=%g" -T "DATE=%y" -T "TRACKNUMBER=%n" -T "GENRE=%m" -T "COMMENT=EAC FLAC -8" %s
Other options :
Fill up missing offset samples with silence : Yes
Delete leading and trailing silent blocks : No
Native Win32 interface for Win NT & 2000
Track 1
Filename D:\Torrents\Anthony Braxton - Seven Standards with dave douglas (1995) [FLAC]\01 - Dewey Square.wav
Pre-gap length 0:00:02.32
Peak level 100.0 %
Track quality 100.0 %
Test CRC 85CA4B07
Copy CRC 85CA4B07
Copy OK
Track 2
Filename D:\Torrents\Anthony Braxton - Seven Standards with dave douglas (1995) [FLAC]\02 - Autumn in New York.wav
Pre-gap length 0:00:02.24
Peak level 66.6 %
Track quality 99.9 %
Test CRC 27809819
Copy CRC 27809819
Copy OK
Track 3
Filename D:\Torrents\Anthony Braxton - Seven Standards with dave douglas (1995) [FLAC]\03 - All or Nothing at All.wav
Pre-gap length 0:00:02.17
Peak level 98.4 %
Track quality 100.0 %
Test CRC AC2647D3
Copy CRC AC2647D3
Copy OK
Track 4
Filename D:\Torrents\Anthony Braxton - Seven Standards with dave douglas (1995) [FLAC]\04 - Eronel.wav
Pre-gap length 0:00:02.07
Peak level 98.4 %
Track quality 100.0 %
Test CRC 499998E8
Copy CRC 499998E8
Copy OK
Track 5
Filename D:\Torrents\Anthony Braxton - Seven Standards with dave douglas (1995) [FLAC]\05 - These Foolish Things Remind Me of You.wav
Pre-gap length 0:00:02.14
Peak level 71.9 %
Track quality 99.9 %
Test CRC 6746DF4D
Copy CRC 6746DF4D
Copy OK
Track 6
Filename D:\Torrents\Anthony Braxton - Seven Standards with dave douglas (1995) [FLAC]\06 - The End of a Love Affair.wav
Pre-gap length 0:00:02.12
Peak level 98.4 %
Track quality 99.9 %
Test CRC D3C95655
Copy CRC D3C95655
Copy OK
Track 7
Filename D:\Torrents\Anthony Braxton - Seven Standards with dave douglas (1995) [FLAC]\07 - Straight Street.wav
Pre-gap length 0:00:02.14
Peak level 98.4 %
Track quality 100.0 %
Test CRC 01221417
Copy CRC 01221417
Copy OK
No errors occured
End of status report
 
Содержание индексной карты (.CUE)
REM DISCID 5A0F5E07
REM COMMENT "ExactAudioCopy v0.95b4"
PERFORMER "Anthony Braxton/Mario Pavone Quintet"
TITLE "Seven Standards 1995"
FILE "01 - Dewey Square.wav" WAVE
TRACK 01 AUDIO
TITLE "Dewey Square"
PERFORMER "Anthony Braxton/Mario Pavone Quintet"
PREGAP 00:00:32
INDEX 01 00:00:00
TRACK 02 AUDIO
TITLE "Autumn in New York"
PERFORMER "Anthony Braxton/Mario Pavone Quintet"
INDEX 00 10:51:31
FILE "02 - Autumn in New York.wav" WAVE
INDEX 01 00:00:00
TRACK 03 AUDIO
TITLE "All or Nothing at All"
PERFORMER "Anthony Braxton/Mario Pavone Quintet"
INDEX 00 09:00:28
FILE "03 - All or Nothing at All.wav" WAVE
INDEX 01 00:00:00
TRACK 04 AUDIO
TITLE "Eronel"
PERFORMER "Anthony Braxton/Mario Pavone Quintet"
INDEX 00 05:01:21
FILE "04 - Eronel.wav" WAVE
INDEX 01 00:00:00
TRACK 05 AUDIO
TITLE "These Foolish Things Remind Me of You"
PERFORMER "Anthony Braxton/Mario Pavone Quintet"
INDEX 00 08:24:68
FILE "05 - These Foolish Things Remind Me of You.wav" WAVE
INDEX 01 00:00:00
TRACK 06 AUDIO
TITLE "The End of a Love Affair"
PERFORMER "Anthony Braxton/Mario Pavone Quintet"
INDEX 00 10:43:53
FILE "06 - The End of a Love Affair.wav" WAVE
INDEX 01 00:00:00
TRACK 07 AUDIO
TITLE "Straight Street"
PERFORMER "Anthony Braxton/Mario Pavone Quintet"
INDEX 00 12:04:26
FILE "07 - Straight Street.wav" WAVE
INDEX 01 00:00:00
Торрент файл перезалит 22.10.2011 в 00.30 по Москве. (В раздачу добавлены сканы обложек, так называемые "коврики" и "блин")
Тем кто скачал альбом до этого и желает продолжить раздавать нужно сделать следующее: Удалить раздачу в своем торрент клиенте. Скачать/запустить новый торрент файл. Указать путь к папке в которую был скачан альбом. Клиент проверит файлы и докачает недостающие обложки.
Приватный:
Нет (DHT включён)
Размер:
350.16 Мб (367,171,184 байт) » файлов: 13
Участники:
0 раздают, 0 качают (0 участников всего)
Внешние участники:
3 раздают, 1 качают (4 участников всего) [ Обновить ]
No seeders - write a personal message to user M0p94ok. Нет сидеров - пишите личное сообщение пользователю M0p94ok.
03:37
65
Нет комментариев. Ваш будет первым!