Поиск

(Free Jazz) Borah Bergman with Andrew Cyrille - The Human Factor - 1992, APE (image+.cue), lossless

(Free Jazz) Borah Bergman with Andrew Cyrille - The Human Factor - 1992, APE (image+.cue), lossless
Треклист:
Borah Bergman with Andrew Cyrille - The Human Factor
Жанр: Free Jazz
Год выпуска диска: 1992
Аудио кодек: APE
Тип рипа: image+.cue
Битрейт аудио: lossless
Продолжительность: 1:00:45
Трэклист:
1. The Human Factor
2. Chasin' The Train 1
3. Red Shadows
4. Devil's Double
5. When Autumn Comes
6. Chasin The Train 2
7. The Human Factor Reprise
Доп. информация: http://allmusic.com/cg/amg.dll?p=amg&sql=10:3nfwxqegld6e
 
Отчет EAC
Exact Audio Copy V0.99 prebeta 4 from 23. January 2008
EAC extraction logfile from 20. September 2008, 0:22
Borah Bergman with Andrew Cyrille / The Human Factor
Used drive : _NEC DVD_RW ND-3500AG Adapter: 0 ID: 2
Read mode : Secure
Utilize accurate stream : Yes
Defeat audio cache : Yes
Make use of C2 pointers : No
Read offset correction : 48
Overread into Lead-In and Lead-Out : No
Fill up missing offset samples with silence : Yes
Delete leading and trailing silent blocks : No
Null samples used in CRC calculations : Yes
Used interface : Native Win32 interface for Win NT & 2000
Used output format : Internal WAV Routines
Sample format : 44.100 Hz; 16 Bit; Stereo
TOC of the extracted CD
Track | Start | Length | Start sector | End sector
---------------------------------------------------------
1 | 0:00.00 | 10:19.35 | 0 | 46459
2 | 10:19.35 | 10:09.45 | 46460 | 92179
3 | 20:29.05 | 5:44.32 | 92180 | 118011
4 | 26:13.37 | 6:39.03 | 118012 | 147939
5 | 32:52.40 | 9:05.67 | 147940 | 188881
6 | 41:58.32 | 10:06.05 | 188882 | 234336
7 | 52:04.37 | 8:40.38 | 234337 | 273374
Range status and errors
Selected range
Filename C:\EAC\Borah Bergman with Andrew Cyrille - The Human Factor\Borah Bergman with Andrew Cyrille - The Human Factor.wav
Peak level 100.0 %
Range quality 100.0 %
Copy CRC 096E8749
Copy OK
No errors occurred
End of status report
Приватный:
Нет (DHT включён)
Размер:
294.34 Мб (308,641,472 байт) » файлов: 3
Участники:
0 раздают, 0 качают (0 участников всего)
Внешние участники:
1 раздают, 0 качают (1 участников всего) [ Обновить ]
No seeders - write a personal message to user M0p94ok. Нет сидеров - пишите личное сообщение пользователю M0p94ok.
03:38
59
Нет комментариев. Ваш будет первым!