Поиск

(free-jazz) Sun Ra Arkestra - Cosmo Omnibus Imagiable Illusion - Live at Pit-Inn, Tokyo, Japan, 8.8.88 - 1988, FLAC (image+.cue), lossless

Треклист:
Sun Ra Arkestra - Cosmo Omnibus Imagiable Illusion - Live at Pit-Inn, Tokyo, Japan, 8.8.88
Жанр: free-jazz
Год выпуска диска: 1988
Производитель диска: Japan (DIW)
Аудио кодек: FLAC
Тип рипа: image+.cue
Битрейт аудио: lossless
Продолжительность: 58.26
Трэклист:
Introduction -- Cosmo Approach Prelude (Ra) (7:29)
Angel Race -- I'll Wait for You (Ra) (7:18)
Can You Take It? (Fletcher Henderson) (3:14)
If You Came from Nowhere Here (Egyptian Fantasy) (Ra) (10:27)
Astro Black (Ra) (11:23)
Prelude to a Kiss (Ellington) (5:11)
Why Was I Born? (Kern) (5:57)
Interstellar Lo Ways (s.b. Low Ways) (Ra) (7:23)
Доп. информация: Sun Ra - piano, synth, vocals;
Michael Ray - trumpet, vocals (on Why Was I Born);
Ahmed Abdullah - trumpet;
Tyrone Hill - trombone;
Marshall Allen - alto sax;
John Gilmore - tenor sax, timbales;
Danny Thompson - baritone sax;
Leroy Taylor (Eloe Omoe)-alto sx, bass clarinet, contra-alto clarinet;
June Tyson - violin, vocals (on Astro Black);
Bruce Edwards - electric guitar;
Rollo Radford - electric bass;
Eric Walker - drums;
Earl "Buster" Smith - drums.
Recorded Live at Pit-Inn, Shinjuku, Tokyo, 8/8/88.
 
eac log
Exact Audio Copy V0.99 prebeta 4 from 23. January 2008
Отчёт EAC об извлечении, выполненном 20. сентября 2008, 2:24
Sun RA Arkestra / Live at Pitt-Inn, Tokyo, Japan
Дисковод: Optiarc DVD RW AD-7170A Adapter: 0 ID: 1
Режим чтения : Достоверность
Использование точного потока : Да
Отключение кэша аудио : Да
Использование указателей C2 : Нет
Коррекция смещения при чтении : 48
Способность читать области Lead-in и Lead-out : Нет
Заполнение пропущенных сэмплов тишиной : Да
Удаление блоков с тишиной в начале и конце : Нет
При вычислениях CRC использовались нулевые сэмплы : Да
Интерфейс : Встроенный Win32-интерфейс для Win NT/2000
Выходной формат : Пользовательский кодировщик
Выбранный битрейт : 768 kBit/s
Качество : Высокий
Добавление ID3-тэга : Нет
Утилита сжатия : D:\Program Files\Exact Audio Copy\FLAC\FLAC.EXE
Дополнительные параметры : -6 -V -T "ARTIST=%a" -T "TITLE=%t" -T "ALBUM=%g" -T "DATE=%y" -T "TRACKNUMBER=%n" -T "GENRE=%m" -T "COMMENT=%e" %s -o %d
TOC извлечённого CD
Трек | Старт | Длительность | Начальный сектор | Конечный сектор
---------------------------------------------------------------------
1 | 0:00.00 | 7:29.70 | 0 | 33744
2 | 7:29.70 | 7:18.72 | 33745 | 66666
3 | 14:48.67 | 3:14.10 | 66667 | 81226
4 | 18:03.02 | 10:27.13 | 81227 | 128264
5 | 28:30.15 | 11:23.37 | 128265 | 179526
6 | 39:53.52 | 5:11.38 | 179527 | 202889
7 | 45:05.15 | 5:57.07 | 202890 | 229671
8 | 51:02.22 | 7:23.28 | 229672 | 262924
Характеристики диапазона извлечения и сообщения об ошибках
Выбранный диапазон
Имя файла D:\EAC\Sun RA Arkestra - Live at Pitt-Inn, Tokyo, Japan.wav
Пиковый уровень 100.0 %
Качество диапазона 100.0 %
CRC копии 78FA6D68
Копирование... OK
Ошибок не произошло
AccurateRip: сводка
Трек 1 нет в базе данных
Трек 2 нет в базе данных
Трек 3 нет в базе данных
Трек 4 нет в базе данных
Трек 5 нет в базе данных
Трек 6 нет в базе данных
Трек 7 нет в базе данных
Трек 8 нет в базе данных
Ни одного трека нет в базе AccurateRip
Конец отчёта
Приватный:
Нет (DHT включён)
Размер:
358.38 Мб (375,789,745 байт) » файлов: 3
Участники:
0 раздают, 0 качают (0 участников всего)
Внешние участники:
3 раздают, 1 качают (4 участников всего) [ Обновить ]
No seeders - write a personal message to user M0p94ok. Нет сидеров - пишите личное сообщение пользователю M0p94ok.
03:38
52
Нет комментариев. Ваш будет первым!