Поиск

(avantgarde, free improvisation) Paal Nilssen-Love & Mats Gustafsson - Splatter (mini-album) - 2007, FLAC (image+.cue), lossless

(avantgarde, free improvisation) Paal Nilssen-Love & Mats Gustafsson - Splatter (mini-album) - 2007, FLAC (image+.cue), lossless
Треклист:
Paal Nilssen-Love & Mats Gustafsson - Splatter (mini-album)
Жанр: avantgarde, free improvisation
Год выпуска диска: 2007
Производитель диска: Norway (Smalltown Superjazzz)
Аудио кодек: FLAC
Тип рипа: image+.cue
Битрейт аудио: lossless
Продолжительность: 20.32
Трэклист:
1. Carex Mackenziei
2. Carex Rhynchophysa
3. Carex Glacialis
4. Carex Straminea
Доп. информация:
 
eac log
Exact Audio Copy V0.99 prebeta 4 from 23. January 2008
Отчёт EAC об извлечении, выполненном 20. сентября 2008, 3:03
Paal Nilssen-Love & Mats Gustafsson / Splatter
Дисковод: Optiarc DVD RW AD-7170A Adapter: 0 ID: 1
Режим чтения : Достоверность
Использование точного потока : Да
Отключение кэша аудио : Да
Использование указателей C2 : Нет
Коррекция смещения при чтении : 48
Способность читать области Lead-in и Lead-out : Нет
Заполнение пропущенных сэмплов тишиной : Да
Удаление блоков с тишиной в начале и конце : Нет
При вычислениях CRC использовались нулевые сэмплы : Да
Интерфейс : Встроенный Win32-интерфейс для Win NT/2000
Выходной формат : Пользовательский кодировщик
Выбранный битрейт : 768 kBit/s
Качество : Высокий
Добавление ID3-тэга : Нет
Утилита сжатия : D:\Program Files\Exact Audio Copy\FLAC\FLAC.EXE
Дополнительные параметры : -6 -V -T "ARTIST=%a" -T "TITLE=%t" -T "ALBUM=%g" -T "DATE=%y" -T "TRACKNUMBER=%n" -T "GENRE=%m" -T "COMMENT=%e" %s -o %d
TOC извлечённого CD
Трек | Старт | Длительность | Начальный сектор | Конечный сектор
---------------------------------------------------------------------
1 | 0:00.00 | 6:02.67 | 0 | 27216
2 | 6:02.67 | 7:14.02 | 27217 | 59768
3 | 13:16.69 | 3:57.50 | 59769 | 77593
4 | 17:14.44 | 3:17.38 | 77594 | 92406
Характеристики диапазона извлечения и сообщения об ошибках
Выбранный диапазон
Имя файла D:\EAC\Paal Nilssen-Love & Mats Gustafsson - Splatter.wav
Пиковый уровень 94.4 %
Качество диапазона 99.9 %
CRC копии AFF755D6
Копирование... OK
Ошибок не произошло
AccurateRip: сводка
Трек 1 нет в базе данных
Трек 2 нет в базе данных
Трек 3 нет в базе данных
Трек 4 нет в базе данных
Ни одного трека нет в базе AccurateRip
Конец отчёта
Приватный:
Нет (DHT включён)
Размер:
118.88 Мб (124,658,895 байт) » файлов: 3
Участники:
0 раздают, 0 качают (0 участников всего)
Внешние участники:
1 раздают, 0 качают (1 участников всего) [ Обновить ]
No seeders - write a personal message to user M0p94ok. Нет сидеров - пишите личное сообщение пользователю M0p94ok.
03:39
56
Нет комментариев. Ваш будет первым!