Поиск

(mindblowing funk, radical free-jazz) Two Bands And A Legend - Cato Salsa Expirience & The Thing & Joe McPhee - I See You Baby (EP) - 2007, FLAC (tracks), lossless

(mindblowing funk, radical free-jazz) Two Bands And A Legend - Cato Salsa Expirience & The Thing & Joe McPhee - I See You Baby (EP) - 2007, FLAC (tracks), lossless
Треклист:
Two Bands And A Legend - Cato Salsa Expirience & The Thing & Joe McPhee - I See You Baby (EP)
Жанр: mindblowing funk, radical free-jazz
Год выпуска диска: 2007
Производитель диска: Norway (Smalltown Superjazzz)
Аудио кодек: FLAC
Тип рипа: tracks
Битрейт аудио: lossless
Продолжительность: 28.33
Трэклист:
1. I See You Baby Shakin' That Ass (Groove Armada)
2. Nation Time (Joe McPhee)
3. Our Prayer (Donald Ayler)
Доп. информация: Cato Salsa Expirience :
Cato Thomassen - guitar, vocals
Bard Enerstad - guitar, organ, theremin, vocals
Christian Engfelt - bass, vocals
Jon Magne Riise - drums
The Thing :
Mats Gustafsson - tenor & baritone saxophones, electronics
Ingebrigt Haker Flaten - doublebass, electronics
Paal Nilssen-Love - drums
Joe McPhee - tenor saxophone, pocket trumpet, vocals PLAY IT LOUD
 
eac log
Exact Audio Copy V0.99 prebeta 4 from 23. January 2008
Отчёт EAC об извлечении, выполненном 20. сентября 2008, 3:35
Two Bands And A Legend / I See You Baby EP
Дисковод: Optiarc DVD RW AD-7170A Adapter: 0 ID: 1
Режим чтения : Достоверность
Использование точного потока : Да
Отключение кэша аудио : Да
Использование указателей C2 : Нет
Коррекция смещения при чтении : 48
Способность читать области Lead-in и Lead-out : Нет
Заполнение пропущенных сэмплов тишиной : Да
Удаление блоков с тишиной в начале и конце : Нет
При вычислениях CRC использовались нулевые сэмплы : Да
Интерфейс : Встроенный Win32-интерфейс для Win NT/2000
Обработка зазоров : Не обнаружено, добавлено к предыдущему треку
Выходной формат : Пользовательский кодировщик
Выбранный битрейт : 768 kBit/s
Качество : Высокий
Добавление ID3-тэга : Нет
Утилита сжатия : D:\Program Files\Exact Audio Copy\FLAC\FLAC.EXE
Дополнительные параметры : -6 -V -T "ARTIST=%a" -T "TITLE=%t" -T "ALBUM=%g" -T "DATE=%y" -T "TRACKNUMBER=%n" -T "GENRE=%m" -T "COMMENT=%e" %s -o %d
TOC извлечённого CD
Трек | Старт | Длительность | Начальный сектор | Конечный сектор
---------------------------------------------------------------------
1 | 0:00.00 | 13:01.50 | 0 | 58624
2 | 13:01.50 | 6:19.39 | 58625 | 87088
3 | 19:21.14 | 9:12.26 | 87089 | 128514
Трек 1
Имя файла D:\EAC\01. Two Bands And A Legend - I See You Baby Shakin' That Ass (Groove Armada).wav
Пиковый уровень 99.1 %
Качество трека 99.9 %
CRC копии 3856A59F
Трек не обнаружен в базе AccurateRip
Копирование... OK
Трек 2
Имя файла D:\EAC\02. Two Bands And A Legend - Nation Time (Joe McPhee).wav
Пиковый уровень 99.1 %
Качество трека 99.9 %
CRC копии 7C3994BF
Трек не обнаружен в базе AccurateRip
Копирование... OK
Трек 3
Имя файла D:\EAC\03. Two Bands And A Legend - Our Prayer (Donald Ayler).wav
Пиковый уровень 99.9 %
Качество трека 99.9 %
CRC копии 84D6FF49
Трек не обнаружен в базе AccurateRip
Копирование... OK
Ни одного трека нет в базе AccurateRip
Ошибок не произошло
Конец отчёта
Приватный:
Нет (DHT включён)
Размер:
200.20 Мб (209,923,509 байт) » файлов: 4
Участники:
0 раздают, 0 качают (0 участников всего)
Внешние участники:
5 раздают, 1 качают (6 участников всего) [ Обновить ]
No seeders - write a personal message to user M0p94ok. Нет сидеров - пишите личное сообщение пользователю M0p94ok.
03:40
59
Нет комментариев. Ваш будет первым!