Поиск

(modern free-jazz) The Thing (Mats Gustafsson, Ingebrigt Haker Flaten, Paal Milssen-Love) - Garage - 2004, FLAC (image+.cue), lossless

(modern free-jazz) The Thing (Mats Gustafsson, Ingebrigt Haker Flaten, Paal Milssen-Love) - Garage - 2004, FLAC (image+.cue), lossless
Треклист:
The Thing (Mats Gustafsson, Ingebrigt Haker Flaten, Paal Milssen-Love) - Garage
Жанр: modern free-jazz
Год выпуска диска: 2004
Производитель диска: Norway (Smalltown Superjazzz)
Аудио кодек: FLAC
Тип рипа: image+.cue
Битрейт аудио: lossless
Продолжительность: 38.38
Трэклист:
1. Art Star (Yeah Yeah Yeahs)
2. Aluminium (White Stripes)
3. Haunted (Norman Howard)
4. Eine Kleine Marchmusic (Peter Brotzmann)
5. Hey Flask (The Thing)
6. Have Love Will Travel (Sonics)
7. Garage (The Thing)
Доп. информация: This Is An Analog Recording
Mats Gustafsson - tenor & baritone saxophones
Ingebrigt Haker Flaten - doublebass
Paal Nilssen-Love - drums, percussion, sampler
 
eac log
Exact Audio Copy V0.99 prebeta 4 from 23. January 2008
Отчёт EAC об извлечении, выполненном 20. сентября 2008, 6:26
The Thing / Garage
Дисковод: Optiarc DVD RW AD-7170A Adapter: 0 ID: 1
Режим чтения : Достоверность
Использование точного потока : Да
Отключение кэша аудио : Да
Использование указателей C2 : Нет
Коррекция смещения при чтении : 48
Способность читать области Lead-in и Lead-out : Нет
Заполнение пропущенных сэмплов тишиной : Да
Удаление блоков с тишиной в начале и конце : Нет
При вычислениях CRC использовались нулевые сэмплы : Да
Интерфейс : Встроенный Win32-интерфейс для Win NT/2000
Выходной формат : Пользовательский кодировщик
Выбранный битрейт : 768 kBit/s
Качество : Высокий
Добавление ID3-тэга : Нет
Утилита сжатия : D:\Program Files\Exact Audio Copy\FLAC\FLAC.EXE
Дополнительные параметры : -6 -V -T "ARTIST=%a" -T "TITLE=%t" -T "ALBUM=%g" -T "DATE=%y" -T "TRACKNUMBER=%n" -T "GENRE=%m" -T "COMMENT=%e" %s -o %d
TOC извлечённого CD
Трек | Старт | Длительность | Начальный сектор | Конечный сектор
---------------------------------------------------------------------
1 | 0:00.00 | 4:29.02 | 0 | 20176
2 | 4:29.02 | 4:11.55 | 20177 | 39056
3 | 8:40.57 | 5:56.44 | 39057 | 65800
4 | 14:37.26 | 6:11.33 | 65801 | 93658
5 | 20:48.59 | 3:49.69 | 93659 | 110902
6 | 24:38.53 | 2:14.55 | 110903 | 121007
7 | 26:53.33 | 11:44.33 | 121008 | 173840
Характеристики диапазона извлечения и сообщения об ошибках
Выбранный диапазон
Имя файла D:\EAC\The Thing - Garage.wav
Пиковый уровень 97.8 %
Качество диапазона 99.9 %
CRC копии 47721C62
Копирование... OK
Ошибок не произошло
AccurateRip: сводка
Трек 1 точность не определена (достоверность 3) [710243EB], AccurateRip вернул [BEC708A9]
Трек 2 точность не определена (достоверность 3) [FFF37919], AccurateRip вернул [D126D0DA]
Трек 3 точность не определена (достоверность 3) [48FD1B91], AccurateRip вернул [A1DB01B4]
Трек 4 точность не определена (достоверность 3) [EF9E4B22], AccurateRip вернул [20E57EF7]
Трек 5 точность не определена (достоверность 3) [FB240AD5], AccurateRip вернул [00188573]
Трек 6 точность не определена (достоверность 3) [6500E083], AccurateRip вернул [B7641970]
Трек 7 точность не определена (достоверность 3) [524850DE], AccurateRip вернул [2C9719EA]
Ни один трек не прошёл проверки на точность
В вашей базе может быть иной вариант штамповки диска
Конец отчёта
Приватный:
Нет (DHT включён)
Размер:
254.90 Мб (267,278,210 байт) » файлов: 3
Участники:
0 раздают, 0 качают (0 участников всего)
Внешние участники:
3 раздают, 1 качают (4 участников всего) [ Обновить ]
No seeders - write a personal message to user M0p94ok. Нет сидеров - пишите личное сообщение пользователю M0p94ok.
03:41
63
Нет комментариев. Ваш будет первым!