Поиск

(Mainstream Jazz, Cool) [CD] VA - The Best Of Original Jazz Classics (Count Basie, Ray Brown, Chet Baker, Tommy Flanagan, Ella Fitzgerald and more) - 1996, APE (image+.cue), lossless

(Mainstream Jazz, Cool) [CD] VA - The Best Of Original Jazz Classics (Count Basie, Ray Brown, Chet Baker, Tommy Flanagan, Ella Fitzgerald and more) - 1996, APE (image+.cue), lossless
Треклист:
The Best Of Original Jazz Classics
Жанр: Mainstream Jazz, Cool
Носитель: CD
Страна-производитель диска (релиза): Germany
Год издания: 1996
Издатель (лейбл): Zyx Music
Номер по каталогу: OJCCD 1003-2
Страна исполнителя (группы): USA
Аудиокодек: APE (*.ape)
Тип рипа: image+.cue
Битрейт аудио: lossless
Продолжительность: 73'52
Источник (релизер): Own rip
Наличие сканов в содержимом раздачи: да
Треклист:
1. Things Are Getting Better [Cannonball Adderley]
2. How High The Moon [Chet Baker]
3. Jumpin' At The Woodside [Count Basie]
4. Afro Jaws [Eddie "Lockjaw" Davis]
5. There Is No Greater Love [The New Miles Davis Quintet]
6. Latin American Sunshine [Duke Ellington]
7. Waltz For Debby [The Bill Evans Trio]
8. I Ain't Got Nothin' But The Blues [Ella Fitzgerald]
9. Birks Work [Dizzy Gillespie, Ray Brown, Joe Pass, Mickey Roker]
10. My Funny Valentine [The Milt Jackson Quartet]
11. Slippery [Ray Brown]
12. Caravan [Tommy Flanagan]
 
Лог создания рипа
Exact Audio Copy V1.0 beta 6 from 9. April 2015
EAC extraction logfile from 7. June 2015, 17:43
The Best Of / Original Jazz Classics
Used drive : TSSTcorpCDDVDW SE-208AB Adapter: 1 ID: 1
Read mode : Secure
Utilize accurate stream : Yes
Defeat audio cache : Yes
Make use of C2 pointers : No
Read offset correction : 6
Overread into Lead-In and Lead-Out : No
Fill up missing offset samples with silence : Yes
Delete leading and trailing silent blocks : No
Null samples used in CRC calculations : Yes
Used interface : Native Win32 interface for Win NT & 2000
Used output format : Monkey's Audio Lossless Encoder
Selected bitrate : High Lossless Compression
Quality : High
Add ID3 tag : Yes
Command line compressor : C:\Program Files (x86)\Exact Audio Copy\MAC\MAC.exe
TOC of the extracted CD
Track | Start | Length | Start sector | End sector
---------------------------------------------------------
1 | 0:00.00 | 7:12.25 | 0 | 32424
2 | 7:12.25 | 3:35.50 | 32425 | 48599
3 | 10:48.00 | 4:31.50 | 48600 | 68974
4 | 15:19.50 | 7:36.50 | 68975 | 103224
5 | 22:56.25 | 5:20.25 | 103225 | 127249
6 | 28:16.50 | 6:54.62 | 127250 | 158361
7 | 35:11.37 | 6:47.13 | 158362 | 188899
8 | 41:58.50 | 4:17.50 | 188900 | 208224
9 | 46:16.25 | 8:53.50 | 208225 | 248249
10 | 55:10.00 | 4:39.25 | 248250 | 269199
11 | 59:49.25 | 7:23.00 | 269200 | 302424
12 | 67:12.25 | 6:45.47 | 302425 | 332846
Range status and errors
Selected range
Filename D:\EAC\The Best Of - Original Jazz Classics.wav
Peak level 100.0 %
Extraction speed 3.7 X
Range quality 99.9 %
Test CRC 1EDB9FE5
Copy CRC 1EDB9FE5
Copy OK
No errors occurred
AccurateRip summary
Track 1 accurately ripped (confidence 5) [3E26480F] (AR v2)
Track 2 accurately ripped (confidence 6) [89EF0A04] (AR v2)
Track 3 accurately ripped (confidence 6) [F0241ACF] (AR v2)
Track 4 accurately ripped (confidence 6) [C75FB89D] (AR v2)
Track 5 accurately ripped (confidence 6) [647FEB5D] (AR v2)
Track 6 accurately ripped (confidence 6) [4AE0C416] (AR v2)
Track 7 accurately ripped (confidence 6) [29119D4D] (AR v2)
Track 8 accurately ripped (confidence 6) [527AC537] (AR v2)
Track 9 accurately ripped (confidence 6) [B0968069] (AR v2)
Track 10 accurately ripped (confidence 6) [29503C40] (AR v2)
Track 11 accurately ripped (confidence 6) [3FAFABF9] (AR v2)
Track 12 accurately ripped (confidence 5) [FD9D167E] (AR v2)
All tracks accurately ripped
End of status report
---- CUETools DB Plugin V2.1.6
[CTDB TOCID: zJSsG2VFZIJcXbm1eDI5JJmLvHc-] found
Submit result: zJSsG2VFZIJcXbm1eDI5JJmLvHc- has been confirmed
Track | CTDB Status
1 | (3/3) Accurately ripped
2 | (3/3) Accurately ripped
3 | (3/3) Accurately ripped
4 | (3/3) Accurately ripped
5 | (3/3) Accurately ripped
6 | (3/3) Accurately ripped
7 | (3/3) Accurately ripped
8 | (3/3) Accurately ripped
9 | (3/3) Accurately ripped
10 | (3/3) Accurately ripped
11 | (3/3) Accurately ripped
12 | (3/3) Accurately ripped
==== Log checksum 1A826108124DEC9CD960EF26148F9DED7D6A73FB061F5F8E91E5136AF971222F ====
 
Содержание индексной карты (.CUE)
REM GENRE Jazz
REM DISCID 9D11550C
REM COMMENT "ExactAudioCopy v1.0b6"
PERFORMER "The Best Of"
TITLE "Original Jazz Classics"
FILE "The Best Of - Original Jazz Classics.ape" WAVE
TRACK 01 AUDIO
TITLE "Things Are Getting Better"
PERFORMER "Cannonball Adderly"
INDEX 01 00:00:00
TRACK 02 AUDIO
TITLE "How High The Moon"
PERFORMER "Chet Baker"
INDEX 00 07:10:30
INDEX 01 07:12:25
TRACK 03 AUDIO
TITLE "Jumpin' At The Woodside"
PERFORMER "Count Basie"
INDEX 00 10:46:00
INDEX 01 10:48:00
TRACK 04 AUDIO
TITLE "Afro Jaws"
PERFORMER "Eddie 'Lockjaw' Davis"
INDEX 00 15:17:10
INDEX 01 15:19:50
TRACK 05 AUDIO
TITLE "There Is No Greater Love"
PERFORMER "The New Miles Davis Quintet"
INDEX 00 22:54:40
INDEX 01 22:56:25
TRACK 06 AUDIO
TITLE "Latin America Sunshine"
PERFORMER "Duke Ellington"
INDEX 00 28:14:42
INDEX 01 28:16:50
TRACK 07 AUDIO
TITLE "Waltz For Debbie"
PERFORMER "Bill Evans Trio"
INDEX 00 35:09:32
INDEX 01 35:11:37
TRACK 08 AUDIO
TITLE "I Ain't Got Nothing But The Blues"
PERFORMER "Ella Fitzgerald"
INDEX 00 41:56:70
INDEX 01 41:58:50
TRACK 09 AUDIO
TITLE "Birks Work"
PERFORMER "Dizzy Gillespie/Ray Brown/Joe Pass/Micky Roker"
INDEX 00 46:14:47
INDEX 01 46:16:25
TRACK 10 AUDIO
TITLE "My Funny Valentine"
PERFORMER "Milt Jackson Qaurtet"
INDEX 00 55:08:22
INDEX 01 55:10:00
TRACK 11 AUDIO
TITLE "Slippery"
PERFORMER "Ray Brown"
INDEX 00 59:47:50
INDEX 01 59:49:25
TRACK 12 AUDIO
TITLE "Caravan"
PERFORMER "Tommy Flanagan"
INDEX 00 67:10:57
INDEX 01 67:12:25
По всем вопросам пишите личное сообщение пользователю M0p94ok.
03:26
391
Нет комментариев. Ваш будет первым!