Поиск

(Bop) [CD] VA - The Starlight Collection, The Best of Jazz Vol. 4 (Gerry Mulligan, Art Blakey, Teddy Wilson, Dizzy Gillespie and others) - 1994, APE (image+.cue), lossless

(Bop) [CD] VA - The Starlight Collection, The Best of Jazz Vol. 4 (Gerry Mulligan, Art Blakey, Teddy Wilson, Dizzy Gillespie and others) - 1994, APE (image+.cue), lossless
Треклист:
The Starlight Collection, The Best of Jazz Vol. 4
Жанр: Bop
Носитель: CD
Страна-производитель диска (релиза): EU
Год издания: 1994
Издатель (лейбл): Galaxy Music
Номер по каталогу: 3880822
Страна исполнителя (группы): USA / The Netherlands
Аудиокодек: APE (*.ape)
Тип рипа: image+.cue
Битрейт аудио: lossless
Продолжительность: 78'40
Источник (релизер): Own rip
Наличие сканов в содержимом раздачи: да
Треклист:
1. Walking Shoes [Gerry Mulligan]
2. Lover Man [Dave Brubeck
3. My Funny Valentine [Art Blakey]
4. Heart Place [Stan Getz]
5. Dizzy Spells [Teddy Wilson]
6. Cutie [Sonny Rollins]
7. Gettin' Down [Dizzy Gillespie]
8. Chicago [Earl Hines]
9. Take The 'A' Train [Buddy Rich]
10. You Taught My Heart [McCoy Tyner]
11. Autumn Leaves [Ahmad Jamal]
12. Wonderful [Pim Jacobs & Louis Van Dijk]
13. Minor Swing [Basily]
 
Лог создания рипа
Exact Audio Copy V1.0 beta 6 from 9. April 2015
EAC extraction logfile from 20. June 2015, 15:29
Various / The Starlight Collection, The Best of Jazz Vol. 4
Used drive : TSSTcorpCDDVDW SE-208AB Adapter: 1 ID: 2
Read mode : Secure
Utilize accurate stream : Yes
Defeat audio cache : Yes
Make use of C2 pointers : No
Read offset correction : 6
Overread into Lead-In and Lead-Out : No
Fill up missing offset samples with silence : Yes
Delete leading and trailing silent blocks : No
Null samples used in CRC calculations : Yes
Used interface : Native Win32 interface for Win NT & 2000
Used output format : Monkey's Audio Lossless Encoder
Selected bitrate : High Lossless Compression
Quality : High
Add ID3 tag : Yes
Command line compressor : C:\Program Files (x86)\Exact Audio Copy\MAC\MAC.exe
TOC of the extracted CD
Track | Start | Length | Start sector | End sector
---------------------------------------------------------
1 | 0:00.00 | 5:45.43 | 0 | 25917
2 | 5:45.43 | 7:29.12 | 25918 | 59604
3 | 13:14.55 | 9:15.58 | 59605 | 101287
4 | 22:30.38 | 6:29.22 | 101288 | 130484
5 | 28:59.60 | 5:33.23 | 130485 | 155482
6 | 34:33.08 | 5:46.55 | 155483 | 181487
7 | 40:19.63 | 4:58.47 | 181488 | 203884
8 | 45:18.35 | 3:13.43 | 203885 | 218402
9 | 48:32.03 | 6:15.52 | 218403 | 246579
10 | 54:47.55 | 6:14.50 | 246580 | 274679
11 | 61:02.30 | 5:53.60 | 274680 | 301214
12 | 66:56.15 | 4:10.53 | 301215 | 320017
13 | 71:06.68 | 3:33.15 | 320018 | 336007
Range status and errors
Selected range
Filename D:\EAC\The Starlight Collection, The Best of Jazz V.A. Vol. 4.wav
Peak level 98.9 %
Extraction speed 5.2 X
Range quality 100.0 %
Test CRC 1A73F03E
Copy CRC 1A73F03E
Copy OK
No errors occurred
AccurateRip summary
Track 1 accurately ripped (confidence 8) [CC6827BC] (AR v2)
Track 2 accurately ripped (confidence 8) [099AF61C] (AR v2)
Track 3 accurately ripped (confidence 8) [47425F8B] (AR v2)
Track 4 accurately ripped (confidence 8) [F66C6762] (AR v2)
Track 5 accurately ripped (confidence 8) [CB690A3B] (AR v2)
Track 6 accurately ripped (confidence 8) [37A40841] (AR v2)
Track 7 accurately ripped (confidence 8) [4440E5FC] (AR v2)
Track 8 accurately ripped (confidence 8) [1D48FEC9] (AR v2)
Track 9 accurately ripped (confidence 7) [0D1AA687] (AR v2)
Track 10 accurately ripped (confidence 7) [FE8D05FF] (AR v2)
Track 11 accurately ripped (confidence 8) [28856DDF] (AR v2)
Track 12 accurately ripped (confidence 8) [F7564B22] (AR v2)
Track 13 accurately ripped (confidence 5) [C7BB2DD4] (AR v2)
All tracks accurately ripped
End of status report
---- CUETools DB Plugin V2.1.6
[CTDB TOCID: JcIdpO5XZ1m459u72G6plP316I8-] found
Submit result: JcIdpO5XZ1m459u72G6plP316I8- has been confirmed
Track | CTDB Status
1 | (4/4) Accurately ripped
2 | (4/4) Accurately ripped
3 | (4/4) Accurately ripped
4 | (4/4) Accurately ripped
5 | (4/4) Accurately ripped
6 | (4/4) Accurately ripped
7 | (4/4) Accurately ripped
8 | (4/4) Accurately ripped
9 | (4/4) Accurately ripped
10 | (4/4) Accurately ripped
11 | (4/4) Accurately ripped
12 | (4/4) Accurately ripped
13 | (3/4) Accurately ripped
==== Log checksum D73C00B157DBD01A2FB318348C3BABFD8C80103B3D753E3F18170EBC0E54E5AE ====
 
Содержание индексной карты (.CUE)
REM GENRE Jazz
REM DATE 1998
REM DISCID BA11800D
REM COMMENT "ExactAudioCopy v1.0b6"
PERFORMER "Various"
TITLE "The Starlight Collection, The Best of Jazz Vol. 4"
FILE "The Starlight Collection, The Best of Jazz V.A. Vol. 4.ape" WAVE
TRACK 01 AUDIO
TITLE "Walking Shoes"
PERFORMER "Gerry Mulligan"
INDEX 01 00:00:00
TRACK 02 AUDIO
TITLE "Lover Man"
PERFORMER "Dave Brubeck"
INDEX 00 05:43:60
INDEX 01 05:45:43
TRACK 03 AUDIO
TITLE "My Funny Valentine"
PERFORMER "Art Blakey"
INDEX 00 13:12:68
INDEX 01 13:14:55
TRACK 04 AUDIO
TITLE "Heart Place"
PERFORMER "Stan Getz"
INDEX 00 22:28:53
INDEX 01 22:30:38
TRACK 05 AUDIO
TITLE "Dizzy Spells"
PERFORMER "Teddy Wilson"
INDEX 00 28:57:15
INDEX 01 28:59:60
TRACK 06 AUDIO
TITLE "Cutie"
PERFORMER "Sonny Rollins"
INDEX 00 34:30:58
INDEX 01 34:33:08
TRACK 07 AUDIO
TITLE "Gettin' Down"
PERFORMER "Dizzy Gillespie"
INDEX 00 40:17:53
INDEX 01 40:19:63
TRACK 08 AUDIO
TITLE "Chicago"
PERFORMER "Earl Hines"
INDEX 00 45:15:68
INDEX 01 45:18:35
TRACK 09 AUDIO
TITLE "Take The 'A' Train"
PERFORMER "Buddy Rich"
INDEX 00 48:29:63
INDEX 01 48:32:03
TRACK 10 AUDIO
TITLE "You Taught My Heart"
PERFORMER "McCoy Tyner"
INDEX 00 54:45:40
INDEX 01 54:47:55
TRACK 11 AUDIO
TITLE "Autumn Leaves"
PERFORMER "Ahmad Jamal"
INDEX 00 61:00:68
INDEX 01 61:02:30
TRACK 12 AUDIO
TITLE "Wonderful"
PERFORMER "Pim Jacobs & Louis Van Dijk"
INDEX 00 66:54:48
INDEX 01 66:56:15
TRACK 13 AUDIO
TITLE "Minor Swing"
PERFORMER "Basily"
INDEX 00 71:04:43
INDEX 01 71:06:68
По всем вопросам пишите личное сообщение пользователю M0p94ok.
02:27
293
Нет комментариев. Ваш будет первым!