Поиск

(Swing, Bop, Cool, Big Band) [CD] VA - Jazz 4 you (Woody Herman, Lionel Hampton, Gene Krupa, Artie Shaw) - 1996, APE (image+.cue), lossless

(Swing, Bop, Cool, Big Band) [CD] VA - Jazz 4 you (Woody Herman, Lionel Hampton, Gene Krupa, Artie Shaw) - 1996, APE (image+.cue), lossless
Треклист:
Jazz 4 you
Жанр: Swing, Bop, Cool, Big Band
Носитель: CD
Страна-производитель диска (релиза): EU
Год издания: 1996
Издатель (лейбл): Bluenite
Номер по каталогу: BN047
Страна исполнителя (группы): USA
Аудиокодек: APE (*.ape)
Тип рипа: image+.cue
Битрейт аудио: lossless
Продолжительность: 70'20
Источник (релизер): Own rip
Наличие сканов в содержимом раздачи: да
Треклист / Исполнители:
1. Northwest Passage [Woody Herman]
2. Flying Home [Lionel Hampton]
3. King Porter Stomp [Gene Krupa]
4. Temptation [Artie Shaw]
5. Caldonia [Woody Herman]
6. Stardust [Artie Shaw]
7. Drum Boogie [Gene Krupa]
8. Little Blue Girl [Lionel Hampton]
9. Begin To Beguine [Artie Shaw]
10. Glad Hamp [Lionel Hampton]
11. Four Brothers [Woody Herman]
12. Buggle Call Rag [Gene Krupa]
13. Monmartre Bus Ride [Woody Herman]
14. Scustlebutt [Artie Shaw]
15. What's New [Lionel Hampton]
16. Sidewalks Of Cuba [Woody Herman]
17. Opus One [Gene Krupa]
18. It's A Long Way to Tipperary [Artie Shaw]
 
Лог создания рипа
Exact Audio Copy V1.0 beta 6 from 9. April 2015
EAC extraction logfile from 8. June 2015, 15:08
Various / Jazz 4 you
Used drive : TSSTcorpCDDVDW SE-208AB Adapter: 1 ID: 1
Read mode : Secure
Utilize accurate stream : Yes
Defeat audio cache : Yes
Make use of C2 pointers : No
Read offset correction : 6
Overread into Lead-In and Lead-Out : No
Fill up missing offset samples with silence : Yes
Delete leading and trailing silent blocks : No
Null samples used in CRC calculations : Yes
Used interface : Native Win32 interface for Win NT & 2000
Used output format : Monkey's Audio Lossless Encoder
Selected bitrate : High Lossless Compression
Quality : High
Add ID3 tag : Yes
Command line compressor : C:\Program Files (x86)\Exact Audio Copy\MAC\MAC.exe
TOC of the extracted CD
Track | Start | Length | Start sector | End sector
---------------------------------------------------------
1 | 0:00.00 | 3:15.22 | 0 | 14646
2 | 3:15.22 | 12:07.20 | 14647 | 69191
3 | 15:22.42 | 3:02.54 | 69192 | 82895
4 | 18:25.21 | 3:00.55 | 82896 | 96450
5 | 21:26.01 | 3:05.17 | 96451 | 110342
6 | 24:31.18 | 3:27.72 | 110343 | 125939
7 | 27:59.15 | 3:11.70 | 125940 | 140334
8 | 31:11.10 | 3:06.17 | 140335 | 154301
9 | 34:17.27 | 3:19.60 | 154302 | 169286
10 | 37:37.12 | 6:57.60 | 169287 | 200621
11 | 44:34.72 | 3:19.04 | 200622 | 215550
12 | 47:54.01 | 3:14.74 | 215551 | 230174
13 | 51:09.00 | 2:40.55 | 230175 | 242229
14 | 53:49.55 | 3:11.09 | 242230 | 256563
15 | 57:00.64 | 4:54.25 | 256564 | 278638
16 | 61:55.14 | 3:02.62 | 278639 | 292350
17 | 64:58.01 | 2:58.35 | 292351 | 305735
18 | 67:56.36 | 2:43.42 | 305736 | 318002
Range status and errors
Selected range
Filename D:\EAC\Jazz 4 you VA.wav
Peak level 99.9 %
Extraction speed 5.2 X
Range quality 100.0 %
Test CRC 8711A052
Copy CRC 8711A052
Copy OK
No errors occurred
AccurateRip summary
Track 1 cannot be verified as accurate (confidence 1) [99D31E3F], AccurateRip returned [A9B2F42F] (AR v2)
Track 2 cannot be verified as accurate (confidence 1) [C2C5836D], AccurateRip returned [8A5AC88D] (AR v2)
Track 3 cannot be verified as accurate (confidence 1) [F5DEC200], AccurateRip returned [8C432758] (AR v2)
Track 4 cannot be verified as accurate (confidence 1) [4887C81D], AccurateRip returned [5C39BE7E] (AR v2)
Track 5 cannot be verified as accurate (confidence 1) [4FC74476], AccurateRip returned [DC983783] (AR v2)
Track 6 cannot be verified as accurate (confidence 1) [F4C461FD], AccurateRip returned [A1485239] (AR v2)
Track 7 cannot be verified as accurate (confidence 1) [A22F35ED], AccurateRip returned [CD511A6F] (AR v2)
Track 8 cannot be verified as accurate (confidence 1) [AA98481A], AccurateRip returned [B3C3012A] (AR v2)
Track 9 cannot be verified as accurate (confidence 1) [4C973147], AccurateRip returned [77046EE6] (AR v2)
Track 10 cannot be verified as accurate (confidence 1) [3C2FAFCF], AccurateRip returned [9EAF77A9] (AR v2)
Track 11 cannot be verified as accurate (confidence 1) [41140CD8], AccurateRip returned [597B2C25] (AR v2)
Track 12 cannot be verified as accurate (confidence 1) [6DE9BEFB], AccurateRip returned [E41BD357] (AR v2)
Track 13 cannot be verified as accurate (confidence 1) [14D7C1B6], AccurateRip returned [20766268] (AR v2)
Track 14 cannot be verified as accurate (confidence 1) [1B3CC58C], AccurateRip returned [F3772047] (AR v2)
Track 15 cannot be verified as accurate (confidence 1) [689D7F07], AccurateRip returned [4B606C4E] (AR v2)
Track 16 cannot be verified as accurate (confidence 1) [E2E5F693], AccurateRip returned [B23EDBC0] (AR v2)
Track 17 cannot be verified as accurate (confidence 1) [0578A157], AccurateRip returned [36C5375D] (AR v2)
Track 18 cannot be verified as accurate (confidence 1) [4B28B670], AccurateRip returned [A4C9366D] (AR v2)
No tracks could be verified as accurate
You may have a different pressing from the one(s) in the database
End of status report
---- CUETools DB Plugin V2.1.6
[CTDB TOCID: cWANBAjLfUWvP8GLYc3wxcNhJRU-] found
Submit result: cWANBAjLfUWvP8GLYc3wxcNhJRU- has been confirmed
Track | CTDB Status
1 | (2/2) Accurately ripped
2 | (2/2) Accurately ripped
3 | (2/2) Accurately ripped
4 | (2/2) Accurately ripped
5 | (2/2) Accurately ripped
6 | (2/2) Accurately ripped
7 | (2/2) Accurately ripped
8 | (2/2) Accurately ripped
9 | (2/2) Accurately ripped
10 | (2/2) Accurately ripped
11 | (2/2) Accurately ripped
12 | (2/2) Accurately ripped
13 | (2/2) Accurately ripped
14 | (2/2) Accurately ripped
15 | (2/2) Accurately ripped
16 | (2/2) Accurately ripped
17 | (2/2) Accurately ripped
18 | (2/2) Accurately ripped
==== Log checksum E8B444B41B093BE6DCD4B22BA5851415B91C3E5D5E732534A4F98076BD485107 ====
 
Содержание индексной карты (.CUE)
REM GENRE Jazz
REM DATE 1996
REM DISCID 0F109012
REM COMMENT "ExactAudioCopy v1.0b6"
PERFORMER "Various"
TITLE "Jazz 4 you"
FILE "Jazz 4 you VA.ape" WAVE
TRACK 01 AUDIO
TITLE "Northwest Passage"
PERFORMER "Woody Herman"
INDEX 01 00:00:00
TRACK 02 AUDIO
TITLE "Flying Home"
PERFORMER "Lionel Hampton"
INDEX 00 03:13:22
INDEX 01 03:15:22
TRACK 03 AUDIO
TITLE "King Porter Stomp"
PERFORMER "Gene Krupa"
INDEX 00 15:20:42
INDEX 01 15:22:42
TRACK 04 AUDIO
TITLE "Temptation"
PERFORMER "Artie Shaw"
INDEX 00 18:23:21
INDEX 01 18:25:21
TRACK 05 AUDIO
TITLE "Caldonia"
PERFORMER "Woodie Herman"
INDEX 00 21:24:01
INDEX 01 21:26:01
TRACK 06 AUDIO
TITLE "Stardust"
PERFORMER "Artie Shaw"
INDEX 00 24:29:18
INDEX 01 24:31:18
TRACK 07 AUDIO
TITLE "Drum Boogie"
PERFORMER "Gene Krupa"
INDEX 00 27:57:15
INDEX 01 27:59:15
TRACK 08 AUDIO
TITLE "Little Blue Girl"
PERFORMER "Lionel Hampton"
INDEX 00 31:09:10
INDEX 01 31:11:10
TRACK 09 AUDIO
TITLE "Begin To Beguine"
PERFORMER "Artie Shaw"
INDEX 00 34:15:27
INDEX 01 34:17:27
TRACK 10 AUDIO
TITLE "Glad Hamp"
PERFORMER "Lionel Hampton"
INDEX 00 37:35:12
INDEX 01 37:37:12
TRACK 11 AUDIO
TITLE "Four Brothers"
PERFORMER "Woody Herman"
INDEX 00 44:32:73
INDEX 01 44:34:72
TRACK 12 AUDIO
TITLE "Buggle Call Rag"
PERFORMER "Gene Krupa"
INDEX 00 47:52:01
INDEX 01 47:54:01
TRACK 13 AUDIO
TITLE "Monmartre Bus Ride"
PERFORMER "Woody Herma"
INDEX 00 51:07:00
INDEX 01 51:09:00
TRACK 14 AUDIO
TITLE "Scustlebutt"
PERFORMER "Artie Shaw"
INDEX 00 53:47:55
INDEX 01 53:49:55
TRACK 15 AUDIO
TITLE "What's New"
PERFORMER "Lionel Hampton"
INDEX 00 56:58:65
INDEX 01 57:00:64
TRACK 16 AUDIO
TITLE "Sidewalks Of Cuba"
PERFORMER "Woody Herman"
INDEX 00 61:53:15
INDEX 01 61:55:14
TRACK 17 AUDIO
TITLE "Opus One"
PERFORMER "Gene Krupa"
INDEX 00 64:56:02
INDEX 01 64:58:01
TRACK 18 AUDIO
TITLE "It's A Long Way to Tipperary"
PERFORMER "Artie Shaw"
INDEX 00 67:54:37
INDEX 01 67:56:36
По всем вопросам пишите личное сообщение пользователю M0p94ok.
02:25
377
Нет комментариев. Ваш будет первым!