Поиск

(Latino, Afro-Cuban) Ibrahim Ferrer - Ay, Candela - 2005, APE (image+.cue), lossless

(Latino, Afro-Cuban) Ibrahim Ferrer - Ay, Candela - 2005, APE (image+.cue), lossless
Треклист:
Ibrahim Ferrer - Ay, Candela
Жанр: Latino, Afro-Cuban
Год выпуска диска: 2005
Производитель диска: Cuba
Аудио кодек: APE
Тип рипа: image+.cue
Битрейт аудио: lossless
Продолжительность: 53:23
Трэклист:
01. Apuntate Una Mi Social 3:24
02. Maсana Me Voy Pa' Sibanicu 3:25
03. De Camino A La Vereda 2:46
04. Ay, Candela 3:26
05. La Chica Del Granizado 3:51
06. Nuestra Ruca 2:58
07. Estoy Seco y Me Quiero Mojar 4:01
08. Compositor Confundido 4:32
09. Ahora No Puedo 3:45
10. Esto Se Baila Y Se Toca 4:11
11. Mi Tonada Montuna 5:13
12. Santa Cecilia 3:26
13. Una Fuerza Imenza 3:01
14. Todavia Me Queda Voz 5:23
 
лог EAC
Exact Audio Copy V0.99 prebeta 4 from 23. January 2008
EAC extraction logfile from 15. October 2008, 23:09
Ibrahim Ferrer / Ay, Candela
Used drive : Optiarc DVD RW AD-7200A Adapter: 0 ID: 0
Read mode : Secure
Utilize accurate stream : Yes
Defeat audio cache : Yes
Make use of C2 pointers : No
Read offset correction : 48
Overread into Lead-In and Lead-Out : No
Fill up missing offset samples with silence : Yes
Delete leading and trailing silent blocks : No
Null samples used in CRC calculations : Yes
Used interface : Installed external ASPI interface
Used output format : Internal WAV Routines
Sample format : 44.100 Hz; 16 Bit; Stereo
TOC of the extracted CD
Track | Start | Length | Start sector | End sector
---------------------------------------------------------
1 | 0:00.00 | 3:23.72 | 0 | 15296
2 | 3:23.72 | 3:25.09 | 15297 | 30680
3 | 6:49.06 | 2:46.01 | 30681 | 43131
4 | 9:35.07 | 3:25.45 | 43132 | 58551
5 | 13:00.52 | 3:51.10 | 58552 | 75886
6 | 16:51.62 | 2:58.12 | 75887 | 89248
7 | 19:49.74 | 4:01.05 | 89249 | 107328
8 | 23:51.04 | 4:31.56 | 107329 | 127709
9 | 28:22.60 | 3:45.16 | 127710 | 144600
10 | 32:08.01 | 4:11.19 | 144601 | 163444
11 | 36:19.20 | 5:12.47 | 163445 | 186891
12 | 41:31.67 | 3:25.56 | 186892 | 202322
13 | 44:57.48 | 3:00.56 | 202323 | 215878
14 | 47:58.29 | 5:22.70 | 215879 | 240098
Range status and errors
Selected range
Filename C:\Documents and Settings\Администратор\Рабочий стол\Ibrahim Ferrer - Ay, Candela.wav
Peak level 96.2 %
Range quality 99.9 %
Copy CRC 572B203E
Copy OK
No errors occurred
End of status report
04:01
285
Нет комментариев. Ваш будет первым!