Поиск

(Klez-Jazz, Humour, Zappa-style freakouts in Yid) Cosmic Tree - Rabbinical School Dropouts (Tzadik: Radical Jewish Culture) - 2002, FLAC (tracks+.cue), lossless

Cosmic Tree - Rabbinical School Dropouts (Tzadik: Radical Jewish Culture)

Жанр: Klez-Jazz, Humour, Zappa-style freakouts in Yid
Год выпуска диска: 2002
Производитель диска: USA
Лейбл: Tzadik (Radical Jewish Culture) TZ7168
Аудио кодек: FLAC
Тип рипа: tracks+.cue
Битрейт аудио: lossless
Продолжительность: 47 min
Трэклист:
Cosmic Tree
1. Dung Gate
2. Pillow Rock
3. Warp To Level Three
4. Cosmic Tree
5. Solarium Khosidl
6. Jebusite Hypothesis
7. Sweet Beat
8. Yanatan Hakatan Ii
9. Mosquito From Megiddo
10. Nuclear Jet Set
11. Integratron
12. Semitic Slam
Доп. информация: Рип сделан с оригинального CD Tzadik
Музыканты:
Michael Friedmann - clarinet, tenor sax, toy piano (3), melodica (3)
Hank Friedmann - bass clarinet
Scott Paul Levine - bassoon, english horn, oboe, toy piano (12)
Jonathan Rotter - trombone
Jon-Jon Friedmann - autoharp, cello, guitar, mandolin
Bob Weller - piano
Danny Weller - bass
Nicolas Carvajal - drum kit
Ravi Deo - tabla
Ze'ev Mahar - congas
Веселые ребята... Так можно охарактеризовать этот "небольшой" коллективчик... Почему? Вы сами догадаетесь, когда послушаете их дебютный альбом... Уже сам тот факт, что Зорн решился выпустить первый альбом группы у себя, да еще и в сторжайше контролируемой им серии говорит о многом... Музыка полна жизни и юмора... Короче говоря - прекрасный дебют для ребят, отчисленных из школы раввинов...
 
EAC log
Exact Audio Copy V0.99 prebeta 4 from 23. January 2008
EAC extraction logfile from 11. October 2008, 9:16
Rabbinical School Dropouts / Cosmic Tree
Used drive : TSSTcorpCD/DVDW SH-W162C Adapter: 0 ID: 0
Read mode : Secure
Utilize accurate stream : Yes
Defeat audio cache : Yes
Make use of C2 pointers : No
Read offset correction : 48
Overread into Lead-In and Lead-Out : No
Fill up missing offset samples with silence : Yes
Delete leading and trailing silent blocks : No
Null samples used in CRC calculations : Yes
Used interface : Installed external ASPI interface
Gap handling : Appended to previous track
Used output format : User Defined Encoder
Selected bitrate : 768 kBit/s
Quality : High
Add ID3 tag : No
Command line compressor : C:\Program Files\Exact Audio Copy\FLAC\FLAC.EXE
Additional command line options : -6 -V -T "ARTIST=%a" -T "TITLE=%t" -T "ALBUM=%g" -T "DATE=%y" -T "TRACKNUMBER=%n" -T "GENRE=%m" -T "COMMENT=%e" %s -o %d
Use compression offset : 0
TOC of the extracted CD
Track | Start | Length | Start sector | End sector
---------------------------------------------------------
1 | 0:00.00 | 2:34.71 | 0 | 11620
2 | 2:34.71 | 3:38.48 | 11621 | 28018
3 | 6:13.44 | 4:00.52 | 28019 | 46070
4 | 10:14.21 | 4:34.29 | 46071 | 66649
5 | 14:48.50 | 4:07.71 | 66650 | 85245
6 | 18:56.46 | 3:51.30 | 85246 | 102600
7 | 22:48.01 | 5:30.00 | 102601 | 127350
8 | 28:18.01 | 1:28.69 | 127351 | 134019
9 | 29:46.70 | 4:26.06 | 134020 | 153975
10 | 34:13.01 | 3:40.25 | 153976 | 170500
11 | 37:53.26 | 3:11.04 | 170501 | 184829
12 | 41:04.30 | 5:59.50 | 184830 | 211804
Track 1
Filename C:\2002, Cosmic Tree\01 - Dung Gate.wav
Pre-gap length 0:00:02.00
Peak level 98.8 %
Track quality 100.0 %
Test CRC DAAF4518
Copy CRC DAAF4518
Copy OK
Track 2
Filename C:\2002, Cosmic Tree\02 - Pillow Rock.wav
Peak level 100.0 %
Track quality 100.0 %
Test CRC 410B3490
Copy CRC 410B3490
Copy OK
Track 3
Filename C:\2002, Cosmic Tree\03 - Warp to Level Three.wav
Peak level 98.8 %
Track quality 100.0 %
Test CRC F1208B29
Copy CRC F1208B29
Copy OK
Track 4
Filename C:\2002, Cosmic Tree\04 - Cosmic Tree.wav
Peak level 98.8 %
Track quality 100.0 %
Test CRC 2C6E3039
Copy CRC 2C6E3039
Copy OK
Track 5
Filename C:\2002, Cosmic Tree\05 - Solarium Khosidl.wav
Peak level 98.8 %
Track quality 100.0 %
Test CRC 08D027FE
Copy CRC 08D027FE
Copy OK
Track 6
Filename C:\2002, Cosmic Tree\06 - Jebusite Hypothesis.wav
Peak level 98.8 %
Track quality 100.0 %
Test CRC CD1E9209
Copy CRC CD1E9209
Copy OK
Track 7
Filename C:\2002, Cosmic Tree\07 - Sweet Beat.wav
Pre-gap length 0:00:02.62
Peak level 98.8 %
Track quality 100.0 %
Test CRC 896403B9
Copy CRC 896403B9
Copy OK
Track 8
Filename C:\2002, Cosmic Tree\08 - Yanatan Hakatan II.wav
Peak level 98.8 %
Track quality 100.0 %
Test CRC 1FFF047F
Copy CRC 1FFF047F
Copy OK
Track 9
Filename C:\2002, Cosmic Tree\09 - Mosquito from Megiddo.wav
Peak level 100.0 %
Track quality 100.0 %
Test CRC FF43F990
Copy CRC FF43F990
Copy OK
Track 10
Filename C:\2002, Cosmic Tree\10 - Nuclear Jet Set.wav
Peak level 98.8 %
Track quality 100.0 %
Test CRC 37D4382B
Copy CRC 37D4382B
Copy OK
Track 11
Filename C:\2002, Cosmic Tree\11 - Integratron.wav
Peak level 98.8 %
Track quality 100.0 %
Test CRC D2C1A119
Copy CRC D2C1A119
Copy OK
Track 12
Filename C:\2002, Cosmic Tree\12 - Semitic Slam.wav
Peak level 100.0 %
Track quality 100.0 %
Test CRC B035A69D
Copy CRC B035A69D
Copy OK
No errors occurred
End of status report
04:01
297
Нет комментариев. Ваш будет первым!