Поиск

(Latin Pop/Vocal Jazz) Marta Gomez - Entre Cada Palabra - 2005, FLAC (tracks+.cue), lossless

(Latin Pop/Vocal Jazz) Marta Gomez - Entre Cada Palabra - 2005, FLAC (tracks+.cue), lossless
Marta Gomez - Entre Cada Palabra
Жанр: Latin Pop/Vocal Jazz
Год выпуска диска: 2005
Производитель диска: Chesky Records (JD301)
Аудио кодек: FLAC
Тип рипа: tracks+.cue
Битрейт аудио: lossless
Продолжительность: 58:00
Трэклист:
1. Maria Mulata [3:29]
2. Doña Luisa [2:56]
3. De Amarillo Se Viste La Tarde [3:32]
4. Mar Adentro, Despacito [4:55]
5. Casi [3:34]
6. Un Pedacito de Tu Amor [3:42]
7. ¿Quién Se Acordará? [3:55]
8. Está Linda La Mar [3:35]
9. Lucía [4:32]
10. Negrito [3:45]
11. Cielito Lindo [3:57]
12. Como un Secreto [3:08]
13. Entre Cada Palabra [4:44]
14. Pececito de Agua [4:26]
Personnel:
Marta Gomez [Guitar, Percussion, Vocals]
Anat Cohen [Clarinet]
Evan Harlan [Accordion]
Fernando Huergo [Bass Electric]
Yulia Musayelyan [Flute]
Alejandra Ortiz [Vocals (bckgr)]
Franco Pinna [Percussion, Drums]
Julio Santillan [Guitar, Arranger, Vocals (bckgr), Producer]
 
EAC
EAC extraction logfile from 16. October 2007, 22:32 for CD
Marta Gomez / Entre Cada Palabra
Used drive : PLEXTOR CD-R PX-W1210S Adapter: 2 ID: 4
Read mode : Secure with NO C2, accurate stream, disable cache
Read offset correction : 98
Overread into Lead-In and Lead-Out : No
Used output format : C:\Program Files\EAC\flac.exe (User Defined Encoder)
320 kBit/s
Additional command line options : -V -8 -T "artist=%a" -T "title=%t" -T "album=%g" -T "date=%y" -T "tracknumber=%n" -T "genre=%m" %s
Other options :
Fill up missing offset samples with silence : Yes
Delete leading and trailing silent blocks : No
Installed external ASPI interface
Track 1
Filename Marta 01 - Maria Mulata.wav
Pre-gap length 0:00:02.00
Peak level 99.3 %
Track quality 100.0 %
Test CRC A46EA62C
Copy CRC A46EA62C
Copy OK
Track 2
Filename Marta 02 - Dona Luisa.wav
Peak level 95.5 %
Track quality 100.0 %
Test CRC 2750FC31
Copy CRC 2750FC31
Copy OK
Track 3
Filename Marta 03 - De Amarillo Se Viste La Tarde.wav
Peak level 98.5 %
Track quality 100.0 %
Test CRC 595B2359
Copy CRC 595B2359
Copy OK
Track 4
Filename Marta 04 - Mar Adentro, Despacito.wav
Peak level 99.9 %
Track quality 100.0 %
Test CRC 8354B879
Copy CRC 8354B879
Copy OK
Track 5
Filename Marta 05 - Casi.wav
Peak level 57.7 %
Track quality 100.0 %
Test CRC 7112E8B1
Copy CRC 7112E8B1
Copy OK
Track 6
Filename Marta 06 - Un Pedacito De Tu Amor.wav
Peak level 81.4 %
Track quality 100.0 %
Test CRC CA060C7C
Copy CRC CA060C7C
Copy OK
Track 7
Filename Marta 07 - Quien Se Acordara .wav
Peak level 99.1 %
Track quality 100.0 %
Test CRC E96BE663
Copy CRC E96BE663
Copy OK
Track 8
Filename Marta 08 - Esta Linda La Mar.wav
Peak level 95.3 %
Track quality 100.0 %
Test CRC 9C16F5D7
Copy CRC 9C16F5D7
Copy OK
Track 9
Filename Marta 09 - Lucia.wav
Peak level 82.4 %
Track quality 100.0 %
Test CRC BF94CEA4
Copy CRC BF94CEA4
Copy OK
Track 10
Filename Marta 10 - Negrito.wav
Peak level 79.3 %
Track quality 100.0 %
Test CRC 6D1EE362
Copy CRC 6D1EE362
Copy OK
Track 11
Filename Marta 11 - Cielito Lindo.wav
Peak level 55.6 %
Track quality 100.0 %
Test CRC DAACCE8D
Copy CRC DAACCE8D
Copy OK
Track 12
Filename Marta 12 - Como Un Secreto.wav
Peak level 78.4 %
Track quality 100.0 %
Test CRC 9A830D22
Copy CRC 9A830D22
Copy OK
Track 13
Filename Marta 13 - Entre Cada Palabra.wav
Peak level 99.2 %
Track quality 100.0 %
Test CRC CA670A97
Copy CRC CA670A97
Copy OK
Track 14
Filename Marta 14 - Pececito De Agua.wav
Peak level 99.2 %
Track quality 100.0 %
Test CRC A176C491
Copy CRC A176C491
Copy OK
No errors occured
End of status report
 
Audiocheker
AUDIOCHECKER v2.0 beta (build 457) - by Dester - opdester@freemail.hu
-----------------------------------------------------------
Начато: пятница, 25. 09. 2009. - 8:06.41
Найдено файлов: 14
01 -===- E:\torrent\music\Marta Gomez - Entre Cada Palabra\01 - Maria Mulata.flac
Извлечение успешно выполнено
Заключение: этот трек - CDDA с вероятностью 100%
Временный файл удалён.
02 -===- E:\torrent\music\Marta Gomez - Entre Cada Palabra\02 - Dona Luisa.flac
Извлечение успешно выполнено
Заключение: этот трек - CDDA с вероятностью 100%
Временный файл удалён.
03 -===- E:\torrent\music\Marta Gomez - Entre Cada Palabra\03 - De Amarillo Se Viste La Tarde.flac
Извлечение успешно выполнено
Заключение: этот трек - CDDA с вероятностью 100%
Временный файл удалён.
04 -===- E:\torrent\music\Marta Gomez - Entre Cada Palabra\04 - Mar Adentro, Despacito.flac
Извлечение успешно выполнено
Заключение: этот трек - CDDA с вероятностью 99%
Временный файл удалён.
05 -===- E:\torrent\music\Marta Gomez - Entre Cada Palabra\05 - Casi.flac
Извлечение успешно выполнено
Заключение: этот трек - CDDA с вероятностью 99%
Временный файл удалён.
06 -===- E:\torrent\music\Marta Gomez - Entre Cada Palabra\06 - Un Pedacito De Tu Amor.flac
Извлечение успешно выполнено
Заключение: этот трек - CDDA с вероятностью 43%
Временный файл удалён.
07 -===- E:\torrent\music\Marta Gomez - Entre Cada Palabra\07 - Quien Se Acordara .flac
Извлечение успешно выполнено
Заключение: этот трек - CDDA с вероятностью 100%
Временный файл удалён.
08 -===- E:\torrent\music\Marta Gomez - Entre Cada Palabra\08 - Esta Linda La Mar.flac
Извлечение успешно выполнено
Заключение: этот трек - CDDA с вероятностью 100%
Временный файл удалён.
09 -===- E:\torrent\music\Marta Gomez - Entre Cada Palabra\09 - Lucia.flac
Извлечение успешно выполнено
Заключение: этот трек - CDDA с вероятностью 58%
Временный файл удалён.
10 -===- E:\torrent\music\Marta Gomez - Entre Cada Palabra\10 - Negrito.flac
Извлечение успешно выполнено
Заключение: этот трек - CDDA с вероятностью 100%
Временный файл удалён.
11 -===- E:\torrent\music\Marta Gomez - Entre Cada Palabra\11 - Cielito Lindo.flac
Извлечение успешно выполнено
Заключение: этот трек - CDDA с вероятностью 49%
Временный файл удалён.
12 -===- E:\torrent\music\Marta Gomez - Entre Cada Palabra\12 - Como Un Secreto.flac
Извлечение успешно выполнено
Заключение: этот трек - CDDA с вероятностью 100%
Временный файл удалён.
13 -===- E:\torrent\music\Marta Gomez - Entre Cada Palabra\13 - Entre Cada Palabra.flac
Извлечение успешно выполнено
Заключение: этот трек - CDDA с вероятностью 99%
Временный файл удалён.
14 -===- E:\torrent\music\Marta Gomez - Entre Cada Palabra\14 - Pececito De Agua.flac
Извлечение успешно выполнено
Заключение: этот трек - CDDA с вероятностью 100%
Временный файл удалён.
Завершено: пятница, 25. 09. 2009. - 8:11.13 (Время операции: 0:04.32)
-----------------------------------------------------------
 
Audition
Источник:
09:08
308
Нет комментариев. Ваш будет первым!