Поиск

(Latin Jazz/Cuban Jazz/Salsa) David Buchbinder - Odessa/Havana - 2007, FLAC (tracks+.cue), lossless

(Latin Jazz/Cuban Jazz/Salsa) David Buchbinder - Odessa/Havana - 2007, FLAC (tracks+.cue), lossless
Треклист:
David Buchbinder - Odessa/Havana
Жанр: Latin Jazz/Cuban Jazz/Salsa
Год выпуска диска: 2007
Производитель диска: Tzadik (TZ8121)
Аудио кодек: FLAC
Тип рипа: tracks+.cue
Битрейт аудио: lossless
Трэклист:
1. Lailadance [Buchbinder] 5:41
2. Impresionés [Durán] 6:41
3. Cadiz [Buchbinder] 9:34
4. Next One Rising [Buchbinder] 6:46
5. Rumba Judia [Durán] 3:38
6. Prayer [Buchbinder] 4:21
7. Colaboración [Buchbinder, Durán] 8:34
8. Freylekhs Tumbao [Durán] 4:38
Personnel:
David Buchbinder (trumpet, flugelhorn)
Aleksandar Gajic (violin)
Quisin Nachoff (reeds)
Hilario Duran (piano)
Roberto Occhipinti (bass instrument)
Dafnis Prieto, Mark Kelso (drums)
Jorge Luis "Papiosco" Torres, Rick Shadrach Lazar (percussion)
 
EAC
Exact Audio Copy V0.99 prebeta 4 from 23. January 2008
EAC extraction logfile from 15. May 2008, 21:21
David Buchbinder / Odessa/Havanna
Used drive : PLEXTOR CD-R PREMIUM2 Adapter: 0 ID: 1
Read mode : Secure
Utilize accurate stream : Yes
Defeat audio cache : Yes
Make use of C2 pointers : No
Read offset correction : 30
Overread into Lead-In and Lead-Out : Yes
Fill up missing offset samples with silence : Yes
Delete leading and trailing silent blocks : No
Null samples used in CRC calculations : Yes
Used interface : Installed external ASPI interface
Gap handling : Appended to previous track
Used output format : User Defined Encoder
Selected bitrate : 128 kBit/s
Quality : High
Add ID3 tag : No
Command line compressor : C:\Programme\FLAC\flac.exe
Additional command line options : -5 -V -T "artist=%a" -T "title=%t" -T "album=%g" -T "date=%y" -T "tracknumber=%n" -T "genre=%m" -T "comment=Exact Audio Copy 0.99pb4, Flac 1.2.1.b -5" %s
TOC of the extracted CD
Track | Start | Length | Start sector | End sector
---------------------------------------------------------
1 | 0:00.00 | 5:41.46 | 0 | 25620
2 | 5:41.46 | 6:41.55 | 25621 | 55750
3 | 12:23.26 | 9:34.50 | 55751 | 98850
4 | 21:58.01 | 6:46.27 | 98851 | 129327
5 | 28:44.28 | 3:38.55 | 129328 | 145732
6 | 32:23.08 | 4:21.49 | 145733 | 165356
7 | 36:44.57 | 8:34.68 | 165357 | 203974
8 | 45:19.50 | 4:38.51 | 203975 | 224875
Track 1
Filename C:\David Buchbinder - Odessa-Havanna (2007) [FLAC] {Tzadid 8121}\01 - Lailadance.wav
Pre-gap length 0:00:02.00
Peak level 97.7 %
Track quality 100.0 %
Test CRC BE3546AA
Copy CRC BE3546AA
Track not present in AccurateRip database
Copy OK
Track 2
Filename C:\David Buchbinder - Odessa-Havanna (2007) [FLAC] {Tzadid 8121}\02 - Impresiones.wav
Pre-gap length 0:00:01.05
Peak level 97.7 %
Track quality 100.0 %
Test CRC E18CB17A
Copy CRC E18CB17A
Track not present in AccurateRip database
Copy OK
Track 3
Filename C:\David Buchbinder - Odessa-Havanna (2007) [FLAC] {Tzadid 8121}\03 - Cadiz.wav
Pre-gap length 0:00:01.00
Peak level 97.7 %
Track quality 100.0 %
Test CRC F75741BF
Copy CRC F75741BF
Track not present in AccurateRip database
Copy OK
Track 4
Filename C:\David Buchbinder - Odessa-Havanna (2007) [FLAC] {Tzadid 8121}\04 - Next One Rising.wav
Peak level 97.7 %
Track quality 100.0 %
Test CRC CA288F89
Copy CRC CA288F89
Track not present in AccurateRip database
Copy OK
Track 5
Filename C:\David Buchbinder - Odessa-Havanna (2007) [FLAC] {Tzadid 8121}\05 - Rumba Judia.wav
Peak level 97.7 %
Track quality 100.0 %
Test CRC 0F6F3A29
Copy CRC 0F6F3A29
Track not present in AccurateRip database
Copy OK
Track 6
Filename C:\David Buchbinder - Odessa-Havanna (2007) [FLAC] {Tzadid 8121}\06 - Prayer.wav
Pre-gap length 0:00:01.84
Peak level 95.5 %
Track quality 99.9 %
Test CRC 348E58AC
Copy CRC 348E58AC
Track not present in AccurateRip database
Copy OK
Track 7
Filename C:\David Buchbinder - Odessa-Havanna (2007) [FLAC] {Tzadid 8121}\07 - Colaboracion.wav
Pre-gap length 0:00:01.01
Peak level 97.7 %
Track quality 100.0 %
Test CRC E5C642D5
Copy CRC E5C642D5
Track not present in AccurateRip database
Copy OK
Track 8
Filename C:\David Buchbinder - Odessa-Havanna (2007) [FLAC] {Tzadid 8121}\08 - Freylekhs Tumbao.wav
Pre-gap length 0:00:01.00
Peak level 97.7 %
Track quality 100.0 %
Test CRC B0AEAA82
Copy CRC B0AEAA82
Track not present in AccurateRip database
Copy OK
None of the tracks are present in the AccurateRip database
No errors occurred
End of status report
 
Audiocheker
AUDIOCHECKER v2.0 beta (build 457) - by Dester - opdester@freemail.hu
-----------------------------------------------------------
Начато: суббота, 26. 09. 2009. - 7:42.01
Найдено файлов: 8
1 -===- E:\torrent\music\David Buchbinder - Odessa Havana\01 - Lailadance.flac
Извлечение успешно выполнено
Заключение: этот трек - CDDA с вероятностью 100%
Временный файл удалён.
2 -===- E:\torrent\music\David Buchbinder - Odessa Havana\02 - Impresiones.flac
Извлечение успешно выполнено
Заключение: этот трек - CDDA с вероятностью 100%
Временный файл удалён.
3 -===- E:\torrent\music\David Buchbinder - Odessa Havana\03 - Cadiz.flac
Извлечение успешно выполнено
Заключение: этот трек - CDDA с вероятностью 100%
Временный файл удалён.
4 -===- E:\torrent\music\David Buchbinder - Odessa Havana\04 - Next One Rising.flac
Извлечение успешно выполнено
Заключение: этот трек - CDDA с вероятностью 99%
Временный файл удалён.
5 -===- E:\torrent\music\David Buchbinder - Odessa Havana\05 - Rumba Judia.flac
Извлечение успешно выполнено
Заключение: этот трек - CDDA с вероятностью 100%
Временный файл удалён.
6 -===- E:\torrent\music\David Buchbinder - Odessa Havana\06 - Prayer.flac
Извлечение успешно выполнено
Заключение: этот трек - CDDA с вероятностью 100%
Временный файл удалён.
7 -===- E:\torrent\music\David Buchbinder - Odessa Havana\07 - Colaboracion.flac
Извлечение успешно выполнено
Заключение: этот трек - CDDA с вероятностью 100%
Временный файл удалён.
8 -===- E:\torrent\music\David Buchbinder - Odessa Havana\08 - Freylekhs Tumbao.flac
Извлечение успешно выполнено
Заключение: этот трек - CDDA с вероятностью 100%
Временный файл удалён.
Завершено: суббота, 26. 09. 2009. - 7:46.01 (Время операции: 0:04.00)
-----------------------------------------------------------
 
Audition
Источник:
Download available for power users only.
08:09
218
Нет комментариев. Ваш будет первым!