Поиск

(Latin Jazz, Afro-Brazilian, Axiom) Bahia Black - Ritual Beating System (Wayne Shorter, Herbie Hankock, Bill Laswell) - 1992, APE (image+.cue), lossless

Треклист:
Bahia Black - Ritual Beating System
Жанр: Latin Jazz, Afro-Brazilian
Год выпуска диска: 1992
Производитель диска: USA
Лейбл: Axiom
Аудио кодек: APE
Тип рипа: image+.cue
Битрейт аудио: lossless
Продолжительность: 42 min
Трэклист:
Ritual Beating System
1. Retrato Calado
2. Capitao Do Asfalto
3. Seven Powers
4. Uma Viagem del Baldes de Larry Wright
5. Olodum
6. Guia Pro Congal
7. Gwagwa O De
8. Follow Me
9. Nina in the Womb of the Forest
Музыканты:
Carlinhos Brown: guiter, percussion, vocals
band Olodum (Antonio Luis Alves de Souza /leader/, Bartolomeu P. Nunes, Luis C.S. Alves,
Jose De Souza, Antonio Carlos S. Brito, Gilmario M. de Andrade, Jose Carlos Dos Santos,
Luis C. Moreira, Edison Da Silva Neiva, Luis C.M. Monterio): drums
Wayne Shorter: soprano sax
Herbie Hankock: piano, prepared piano
Bernie Worrell: hammond B-3 organ
Henry Threadgill: flute
Larry Wright: buckets
Tony "Funky Drummer" Walls: drums, metal
Доп. информация: Рип сделан с оригинального CD 314-510 856-2... Картинки прилагаются...
Отличный альбом, вышедший на покойном лейбле Bill Laswell-а, с не менее отличным составом...
 
from All Music Guide
A musical rollercoaster from start to finish, Ritual Beating System jolts us with its abrupt mood changes, yet never really strays from a percussive Brazilian-oriented theme. After opening with the soft Brazilian pop-jazz of "Retrato Calado," Bahia Black dives into hard-edged Portuguese-language rap ("Capitao Do Asfalto") before embracing post-bop jazz on "The Seven Powers." Bahia's "all-star" lineup isn't exactly conventional — percussionist Olodum (a highly regarded figure in Northeastern Brazil's Afro-Brazilian culture) and other Brazilian players are joined by fusion/post-bop greats Wayne Shorter (soprano sax) and Herbie Hancock (piano), as well as avant-garde explorer Henry Threadgill (flute) and George Clinton associate Bernie Worrell (organ). It takes an open-minded bunch to play something as pretty as "Guia Pro Congal" one minute and something as dissonant and abstract as the "outside" jazz number "Gwagwa O De" the next. And similarly, it will take open-minded listeners to fully appreciate this unpredictable CD.
 
EAC Log
Exact Audio Copy V0.99 prebeta 4 from 23. January 2008
EAC extraction logfile from 25. September 2009, 11:38
Bahia Black / Ritual Beating System
Used drive : TSSTcorpCD/DVDW SH-W162C Adapter: 0 ID: 0
Read mode : Secure
Utilize accurate stream : Yes
Defeat audio cache : Yes
Make use of C2 pointers : No
Read offset correction : 6
Overread into Lead-In and Lead-Out : No
Fill up missing offset samples with silence : Yes
Delete leading and trailing silent blocks : No
Null samples used in CRC calculations : Yes
Used interface : Installed external ASPI interface
Used output format : Internal WAV Routines
Sample format : 44.100 Hz; 16 Bit; Stereo
TOC of the extracted CD
Track | Start | Length | Start sector | End sector
---------------------------------------------------------
1 | 0:00.32 | 1:27.35 | 32 | 6591
2 | 1:27.67 | 5:32.28 | 6592 | 31519
3 | 7:00.20 | 7:14.67 | 31520 | 64136
4 | 14:15.12 | 3:30.18 | 64137 | 79904
5 | 17:45.30 | 3:27.32 | 79905 | 95461
6 | 21:12.62 | 5:54.45 | 95462 | 122056
7 | 27:07.32 | 8:06.20 | 122057 | 158526
8 | 35:13.52 | 4:23.40 | 158527 | 178291
9 | 39:37.17 | 2:28.53 | 178292 | 189444
Range status and errors
Selected range
Filename C:\Bahia Black (1992) Ritual Beating System\Bahia Black - Ritual Beating System.wav
Peak level 97.7 %
Range quality 100.0 %
Copy CRC 64A4B11C
Copy OK
No errors occurred
End of status report
Мои раздачи
Download available for power users only.
08:08
231
Нет комментариев. Ваш будет первым!