Поиск

(Latin Jazz, World Fusion) [CD] Willie Bobo - Bobo's Beat - 1964 (2003), FLAC (tracks+.cue), lossless

(Latin Jazz, World Fusion) [CD] Willie Bobo - Bobo's Beat - 1964 (2003), FLAC (tracks+.cue), lossless
Треклист:
Willie Bobo - Bobo's Beat
Жанр: Latin Jazz, World Fusion
Носитель: CD
Страна-производитель диска (релиза): EU
Год издания: 1964 (2003)
Издатель (лейбл): Roulette Jazz/EMI
Номер по каталогу: 7243 5 90954 2 4
Страна исполнителя (группы): США
Аудиокодек: FLAC (*.flac)
Тип рипа: tracks+.cue
Битрейт аудио: lossless
Продолжительность: 39:30
Источник (релизер): what.cd
Наличие сканов в содержимом раздачи: да
Треклист:
01. Bon Sueno (Colon) - 2:30
02. Naked City Theme (May) - 2:18
03. Felicidade (DeMoraes-Jobim) - 3:28
04. Bossa Nova in Blue (Anderson) - 2:45
05. Boroquinho (Nenescal-Boscole) - 4:31
06. Crisis (Hubbard) - 5:16
07. Mi Fas y Recordar (Salter) - 3:56
08. Capers (McIntosh) - 3:47
09. Let Your Hair Down Blues (Anderson) - 5:14
10. Trinidad (Wiltshire) - 2:59
11. Timbale Groove (Wiltshire) - 2:46
Состав:
#1-9:
Willie Bobo - timbales, percussion
Clark Terry - trumpet
Joe Farrell - tenor saxophone
Frank Anderson - piano, organ
and others unknown
Recorded in New York on October 11, 1962 (#1-9) and May 27-28, 1964 (#10-11).
 
Лог создания рипа
Exact Audio Copy V1.0 beta 3 from 29. August 2011
EAC extraction logfile from 25. November 2013, 19:16
Willie Bobo / Bobo's Beat
Used drive : PLEXTOR CD-R PREMIUM2 Adapter: 4 ID: 0
Read mode : Secure
Utilize accurate stream : Yes
Defeat audio cache : Yes
Make use of C2 pointers : No
Read offset correction : 30
Overread into Lead-In and Lead-Out : No
Fill up missing offset samples with silence : Yes
Delete leading and trailing silent blocks : No
Null samples used in CRC calculations : Yes
Used interface : Native Win32 interface for Win NT & 2000
Gap handling : Appended to previous track
Used output format : User Defined Encoder
Selected bitrate : 128 kBit/s
Quality : High
Add ID3 tag : No
Command line compressor : C:\Program Files\Exact Audio Copy\Flac\flac.exe
Additional command line options : -8 -V -T "ARTIST=%artist%" -T "TITLE=%title%" -T "ALBUM=%albumtitle%" -T "DATE=%year%" -T "TRACKNUMBER=%tracknr%" -T "TOTALTRACKS=%numtracks%" -T "GENRE=%genre%" -T "ALBUMARTIST=%albumartist%" -T "ALBUM ARTIST=%albumartist%" -T "COMMENT=EAC Secure Mode, Test & Copy, AccurateRip, FLAC -8" %source%
TOC of the extracted CD
Track | Start | Length | Start sector | End sector
---------------------------------------------------------
1 | 0:00.00 | 2:30.37 | 0 | 11286
2 | 2:30.37 | 2:17.60 | 11287 | 21621
3 | 4:48.22 | 3:28.00 | 21622 | 37221
4 | 8:16.22 | 2:44.65 | 37222 | 49586
5 | 11:01.12 | 4:30.38 | 49587 | 69874
6 | 15:31.50 | 5:15.55 | 69875 | 93554
7 | 20:47.30 | 3:56.12 | 93555 | 111266
8 | 24:43.42 | 3:47.08 | 111267 | 128299
9 | 28:30.50 | 5:13.50 | 128300 | 151824
10 | 33:44.25 | 2:59.27 | 151825 | 165276
11 | 36:43.52 | 2:45.40 | 165277 | 177691
12 | 42:01.17 | 31:56.58 | 189092 | 332849
Track 1
Filename F:\EAC WAV\01 - Bon Sueno.wav
Pre-gap length 0:00:02.00
Peak level 97.7 %
Extraction speed 7.0 X
Track quality 100.0 %
Test CRC FDFC7C8A
Copy CRC FDFC7C8A
Cannot be verified as accurate (confidence 2) [9DF0E781], AccurateRip returned [4158885E] (AR v2)
Copy OK
Track 2
Filename F:\EAC WAV\02 - Naked City Theme.wav
Pre-gap length 0:00:01.40
Peak level 97.7 %
Extraction speed 5.9 X
Track quality 99.9 %
Test CRC 4AF64CEA
Copy CRC 4AF64CEA
Cannot be verified as accurate (confidence 1) [454EDF5D], AccurateRip returned [823B05A7] (AR v2)
Copy OK
Track 3
Filename F:\EAC WAV\03 - Felicidade.wav
Pre-gap length 0:00:01.70
Peak level 97.7 %
Extraction speed 7.3 X
Track quality 100.0 %
Test CRC 42BC6B22
Copy CRC 42BC6B22
Cannot be verified as accurate (confidence 1) [393A5444], AccurateRip returned [637877BD] (AR v2)
Copy OK
Track 4
Filename F:\EAC WAV\04 - Bossa Nova In Blue.wav
Pre-gap length 0:00:02.50
Peak level 97.7 %
Extraction speed 7.8 X
Track quality 100.0 %
Test CRC E55667B5
Copy CRC E55667B5
Cannot be verified as accurate (confidence 1) [65966650], AccurateRip returned [283BF575] (AR v2)
Copy OK
Track 5
Filename F:\EAC WAV\05 - Boroquinho.wav
Pre-gap length 0:00:01.67
Peak level 97.7 %
Extraction speed 8.6 X
Track quality 100.0 %
Test CRC 7817AF28
Copy CRC 7817AF28
Cannot be verified as accurate (confidence 1) [DB16A378], AccurateRip returned [E401A241] (AR v2)
Copy OK
Track 6
Filename F:\EAC WAV\06 - Crisis.wav
Pre-gap length 0:00:02.28
Peak level 97.7 %
Extraction speed 8.5 X
Track quality 99.9 %
Test CRC 79506AF4
Copy CRC 79506AF4
Cannot be verified as accurate (confidence 1) [49A61913], AccurateRip returned [1C15449A] (AR v2)
Copy OK
Track 7
Filename F:\EAC WAV\07 - Mi Fas Y Recordar.wav
Pre-gap length 0:00:01.25
Peak level 97.7 %
Extraction speed 10.1 X
Track quality 100.0 %
Test CRC 5DC24AD1
Copy CRC 5DC24AD1
Cannot be verified as accurate (confidence 1) [E50CD0E5], AccurateRip returned [CCE44D32] (AR v2)
Copy OK
Track 8
Filename F:\EAC WAV\08 - Capers.wav
Pre-gap length 0:00:02.50
Peak level 97.7 %
Extraction speed 10.5 X
Track quality 100.0 %
Test CRC A01D7C6B
Copy CRC A01D7C6B
Cannot be verified as accurate (confidence 2) [6467B4F0], AccurateRip returned [21D64D52] (AR v2)
Copy OK
Track 9
Filename F:\EAC WAV\09 - Let Your Hair Down Blues.wav
Pre-gap length 0:00:01.73
Peak level 97.7 %
Extraction speed 11.1 X
Track quality 100.0 %
Test CRC 8265CD73
Copy CRC 8265CD73
Cannot be verified as accurate (confidence 1) [FE203A7F], AccurateRip returned [5C5BCB68] (AR v2)
Copy OK
Track 10
Filename F:\EAC WAV\10 - Trinidad (Bonus Track).wav
Pre-gap length 0:00:02.70
Peak level 97.7 %
Extraction speed 11.3 X
Track quality 100.0 %
Test CRC AE6E519C
Copy CRC AE6E519C
Cannot be verified as accurate (confidence 2) [31722CE7], AccurateRip returned [D52986DB] (AR v2)
Copy OK
Track 11
Filename F:\EAC WAV\11 - Timbale Groove (Bonus Track).wav
Pre-gap length 0:00:02.12
Peak level 98.8 %
Extraction speed 9.5 X
Track quality 100.0 %
Test CRC 4664F892
Copy CRC 4664F892
Cannot be verified as accurate (confidence 2) [A5BA5DFE], AccurateRip returned [077CDD64] (AR v2)
Copy OK
No tracks could be verified as accurate
You may have a different pressing from the one(s) in the database
No errors occurred
End of status report
---- CUETools DB Plugin V2.1.3
[CTDB TOCID: qd0CnuN2RO1_fPogAU9RG.VhULk-] database access error: Pending
==== Log checksum E2317F0F5316A963D29F235B5EBBF7F4FD9223BF487194427B6A2DCE69F74DA9 ====
 
Содержание индексной карты (.CUE)
REM GENRE Jazz
REM DATE 1964
REM DISCID 9411560C
REM COMMENT "ExactAudioCopy v1.0b3"
PERFORMER "Willie Bobo"
TITLE "Bobo's Beat"
FILE "01 - Bon Sueno.wav" WAVE
TRACK 01 AUDIO
TITLE "Bon Sueno"
PERFORMER "Willie Bobo"
INDEX 01 00:00:00
TRACK 02 AUDIO
TITLE "Naked City Theme"
PERFORMER "Willie Bobo"
INDEX 00 02:28:72
FILE "02 - Naked City Theme.wav" WAVE
INDEX 01 00:00:00
TRACK 03 AUDIO
TITLE "Felicidade"
PERFORMER "Willie Bobo"
INDEX 00 02:15:65
FILE "03 - Felicidade.wav" WAVE
INDEX 01 00:00:00
TRACK 04 AUDIO
TITLE "Bossa Nova in Blue"
PERFORMER "Willie Bobo"
INDEX 00 03:25:25
FILE "04 - Bossa Nova in Blue.wav" WAVE
INDEX 01 00:00:00
TRACK 05 AUDIO
TITLE "Boroquinho"
PERFORMER "Willie Bobo"
INDEX 00 02:42:73
FILE "05 - Boroquinho.wav" WAVE
INDEX 01 00:00:00
TRACK 06 AUDIO
TITLE "Crisis"
PERFORMER "Willie Bobo"
INDEX 00 04:28:10
FILE "06 - Crisis.wav" WAVE
INDEX 01 00:00:00
TRACK 07 AUDIO
TITLE "Mi Fas y Recordar"
PERFORMER "Willie Bobo"
INDEX 00 05:14:30
FILE "07 - Mi Fas y Recordar.wav" WAVE
INDEX 01 00:00:00
TRACK 08 AUDIO
TITLE "Capers"
PERFORMER "Willie Bobo"
INDEX 00 03:53:37
FILE "08 - Capers.wav" WAVE
INDEX 01 00:00:00
TRACK 09 AUDIO
TITLE "Let Your Hair Down Blues"
PERFORMER "Willie Bobo"
INDEX 00 03:45:10
FILE "09 - Let Your Hair Down Blues.wav" WAVE
INDEX 01 00:00:00
TRACK 10 AUDIO
TITLE "Trinidad"
PERFORMER "Willie Bobo"
INDEX 00 05:10:55
FILE "10 - Trinidad.wav" WAVE
INDEX 01 00:00:00
TRACK 11 AUDIO
TITLE "Timbale Groove"
PERFORMER "Willie Bobo"
INDEX 00 02:57:15
FILE "11 - Timbale Groove.wav" WAVE
INDEX 01 00:00:00
 
Отчет CUETools
[CUETools log; Date: 14.12.2015 19:48:30; Version: 2.1.5]
CD-Extra data track length 31:56:58.
[CTDB TOCID: qd0CnuN2RO1_fPogAU9RG.VhULk-] found.
Track | CTDB Status
1 | (0/1) No match
2 | (0/1) No match
3 | (0/1) No match
4 | (0/1) No match
5 | (0/1) No match
6 | (0/1) No match
7 | (0/1) No match
8 | (0/1) No match
9 | (0/1) No match
10 | (0/1) No match
11 | (0/1) No match
[AccurateRip ID: 0011e4bb-00a6d5e4-9411560c] found.
Track [ CRC | V2 ] Status
01 [c67b3a86|9df0e781] (0+0/2) No match
02 [66fd4c5d|454edf5d] (0+0/3) No match
03 [22b9152f|393a5444] (0+0/3) No match
04 [5ce66daa|65966650] (0+0/3) No match
05 [a52cc03b|db16a378] (0+0/3) No match
06 [14492f52|49a61913] (0+0/3) No match
07 [9e6044fc|e50cd0e5] (0+0/3) No match
08 [ce409cd6|6467b4f0] (0+0/2) No match
09 [b1642d0e|fe203a7f] (0+0/3) No match
10 [b9676b19|31722ce7] (0+0/2) No match
11 [29dbaa0c|a5ba5dfe] (0+0/2) No match
Track Peak [ CRC32 ] [W/O NULL] [ LOG ]
-- 98,8 [D597402A] [304B12AA]
01 97,7 [FDFC7C8A] [76BD6B24] CRC32
02 97,7 [4AF64CEA] [879BFF87] CRC32
03 97,7 [42BC6B22] [919C3D1E] CRC32
04 97,7 [E55667B5] [54004564] CRC32
05 97,7 [7817AF28] [F7A76294] CRC32
06 97,7 [79506AF4] [029CF4CB] CRC32
07 97,7 [5DC24AD1] [F34ABD2B] CRC32
08 97,7 [A01D7C6B] [87AA95A2] CRC32
09 97,7 [8265CD73] [AB05EED8] CRC32
10 97,7 [AE6E519C] [23A60CDC] CRC32
11 98,8 [4664F892] [F9B53B1A] CRC32
 
AllMusic Review by John Bush
Willie Bobo pulled an impressive lineup for his debut as a leader, due in part to a profile gained from his work with Cal Tjader and Herbie Mann. Leading the brass section in this midsized group is trumpeter Clark Terry, who lends the necessary grit and fire, while Joe Farrell's burring tenor gives the record dynamic range. Though Bobo's percussion kit is displayed on the front, it's occasionally difficult to appreciate his playing on the record; he sounds bored and in the background during a trio of Brazilian crossover numbers (this was the year of Jazz Samba, after all), leaving organist Frank Anderson to flare his way playfully through his own "Bossa Nova in Blue." Bobo does finally allow himself some solo space at the end of "Capers," after several minutes of brilliant interplay between brass and reeds. The highlight comes with the group's interpretation of Freddie Hubbard's "Crisis," a slow-burning hard bop number with Bobo's timbales shuffle framing more excellent sectioning, with Farrell's tenor and an unnamed trombone positioned in counterpoint to Terry's trumpet. With none of the Latin fire solo features or pop crossover material often found on "Stereo Spectacular" LPs of the day, Bobo's Beat is a jazz fan's delight: great work from all the principles, and a steady sense of inter-relational talents sounding off in close harmony with each other.
20:05
287
Нет комментариев. Ваш будет первым!