Поиск

(Vocal Jazz, Latin) [CD] Laura Otero - From Noche to Night - 2015, FLAC (tracks+.cue), lossless

(Vocal Jazz, Latin) [CD] Laura Otero - From Noche to Night - 2015, FLAC (tracks+.cue), lossless
FROM NOCHE
to night
LAURA OTERO
Жанр ✷ Vocal Jazz, Latin
Страна-производитель диска ✷ USA
Год издания ✷ 2015
Издатель (лейбл) ✷ Destiny Records
Номер по каталогу ✷ DR-0007
Страна исполнителя ✷ Colombia
Аудиокодек ✷ FLAC (*.flac)
Тип рипа ✷ tracks+.cue
Битрейт аудио ✷ lossless
Продолжительность ✷ 49:03
Источник (релизер) ✷ спасибо Jonwi
Наличие сканов ✷ booklet.pdf
❉ Треклист ❉
1 ✳ Merceditas
2 ✳ A Paso Lento
3 ✳ Pienso En Ti
4 ✳ Hard To Say Goodbye
5 ✳ Nuestra Canción
6 ✳ Agua De Fuega
7 ✳ Mi Canción No Deja De Amarte
8 ✳ From Noche To Night
9 ✳ Dónde Estás Mi Amor
 
Лог создания рипа
Exact Audio Copy V1.1 from 23. June 2015
EAC extraction logfile from 20. August 2015, 8:14
Laura Otero / From Noche to Night
Used drive : SONY DVD RW DW-G521A Adapter: 1 ID: 0
Read mode : Secure
Utilize accurate stream : Yes
Defeat audio cache : Yes
Make use of C2 pointers : No
Read offset correction : 594
Overread into Lead-In and Lead-Out : No
Fill up missing offset samples with silence : Yes
Delete leading and trailing silent blocks : No
Null samples used in CRC calculations : Yes
Used interface : Native Win32 interface for Win NT & 2000
Gap handling : Appended to previous track
Used output format : User Defined Encoder
Selected bitrate : 1024 kBit/s
Quality : High
Add ID3 tag : No
Command line compressor : C:\Program Files\Exact Audio Copy\Flac\flac.exe
Additional command line options : -8 -V -T "ARTIST=%artist%" -T "TITLE=%title%" -T "ALBUM=%albumtitle%" -T "DATE=%year%" -T "TRACKNUMBER=%tracknr%" -T "GENRE=%genre%" -T "PERFORMER=%albuminterpret%" -T "COMPOSER=%composer%" %haslyrics%--tag-from-file=LYRICS="%lyricsfile%"%haslyrics% -T "ALBUMARTIST=%albumartist%" -T "DISCNUMBER=%cdnumber%" -T "TOTALDISCS=%totalcds%" -T "TOTALTRACKS=%numtracks%" -T "COMMENT=%comment%" %source% -o %dest%
TOC of the extracted CD
Track | Start | Length | Start sector | End sector
---------------------------------------------------------
1 | 0:00.00 | 4:58.05 | 0 | 22354
2 | 4:58.05 | 4:33.02 | 22355 | 42831
3 | 9:31.07 | 4:20.37 | 42832 | 62368
4 | 13:51.44 | 5:49.09 | 62369 | 88552
5 | 19:40.53 | 6:18.66 | 88553 | 116968
6 | 25:59.44 | 4:29.51 | 116969 | 137194
7 | 30:29.20 | 6:07.70 | 137195 | 164789
8 | 36:37.15 | 6:43.44 | 164790 | 195058
9 | 43:20.59 | 5:42.72 | 195059 | 220780
Track 1
Filename C:\EAC Rips\From Noche to Night\01 - Merceditas.wav
Pre-gap length 0:00:02.00
Peak level 100.0 %
Extraction speed 1.0 X
Track quality 100.0 %
Test CRC FBDBCB24
Copy CRC FBDBCB24
Track not present in AccurateRip database
Copy OK
Track 2
Filename C:\EAC Rips\From Noche to Night\02 - A Paso Lento.wav
Peak level 100.0 %
Extraction speed 1.1 X
Track quality 100.0 %
Test CRC 2B92F667
Copy CRC 2B92F667
Track not present in AccurateRip database
Copy OK
Track 3
Filename C:\EAC Rips\From Noche to Night\03 - Pienso en Ti (Featuring Claudia Gómez).wav
Peak level 100.0 %
Extraction speed 1.2 X
Track quality 100.0 %
Test CRC 669C07C8
Copy CRC 669C07C8
Track not present in AccurateRip database
Copy OK
Track 4
Filename C:\EAC Rips\From Noche to Night\04 - Hard to Say Goodbye.wav
Peak level 100.0 %
Extraction speed 1.4 X
Track quality 100.0 %
Test CRC 52FF26A3
Copy CRC 52FF26A3
Track not present in AccurateRip database
Copy OK
Track 5
Filename C:\EAC Rips\From Noche to Night\05 - Nuestra Canción.wav
Peak level 100.0 %
Extraction speed 1.5 X
Track quality 100.0 %
Test CRC 71209794
Copy CRC 71209794
Track not present in AccurateRip database
Copy OK
Track 6
Filename C:\EAC Rips\From Noche to Night\06 - Agua de Fuega.wav
Peak level 100.0 %
Extraction speed 1.6 X
Track quality 100.0 %
Test CRC 009C0420
Copy CRC 009C0420
Track not present in AccurateRip database
Copy OK
Track 7
Filename C:\EAC Rips\From Noche to Night\07 - Mi Canción no Deja de Amarte.wav
Peak level 100.0 %
Extraction speed 1.7 X
Track quality 100.0 %
Test CRC 72F9B207
Copy CRC 72F9B207
Track not present in AccurateRip database
Copy OK
Track 8
Filename C:\EAC Rips\From Noche to Night\08 - From Noche to Night.wav
Peak level 100.0 %
Extraction speed 1.8 X
Track quality 100.0 %
Test CRC 1CC7CB91
Copy CRC 1CC7CB91
Track not present in AccurateRip database
Copy OK
Track 9
Filename C:\EAC Rips\From Noche to Night\09 - ¿Dónde Estás Mi Amor.wav
Peak level 97.9 %
Extraction speed 1.8 X
Track quality 99.9 %
Test CRC C3D6E4DF
Copy CRC C3D6E4DF
Track not present in AccurateRip database
Copy OK
None of the tracks are present in the AccurateRip database
No errors occurred
End of status report
---- CUETools DB Plugin V2.1.6
[CTDB TOCID: k2BCbdMibZXrnZkkszCaCFwTH_0-] disk not present in database
Submit result: k2BCbdMibZXrnZkkszCaCFwTH_0- has been uploaded
==== Log checksum A887FADCB007FD71A2A33311CC55042F694F61F15C93A432534394D3C276EB8D ====
 
Содержание индексной карты (.CUE)
FILE "01 - Merceditas.flac" FLAC
REM FILE-DECODED-SIZE 04:58:05
TRACK 01 AUDIO
INDEX 01 00:00:00
FILE "02 - A Paso Lento.flac" FLAC
REM FILE-DECODED-SIZE 04:33:02
TRACK 02 AUDIO
INDEX 01 00:00:00
FILE "03 - Pienso en Ti.flac" FLAC
REM FILE-DECODED-SIZE 04:20:37
TRACK 03 AUDIO
INDEX 01 00:00:00
FILE "04 - Hard to Say Goodbye.flac" FLAC
REM FILE-DECODED-SIZE 05:49:09
TRACK 04 AUDIO
INDEX 01 00:00:00
FILE "05 - Nuestra Cancion.flac" FLAC
REM FILE-DECODED-SIZE 06:18:66
TRACK 05 AUDIO
INDEX 01 00:00:00
FILE "06 - Agua de Fuega.flac" FLAC
REM FILE-DECODED-SIZE 04:29:51
TRACK 06 AUDIO
INDEX 01 00:00:00
FILE "07 - Mi Cancion no Deja de Amarte.flac" FLAC
REM FILE-DECODED-SIZE 06:07:70
TRACK 07 AUDIO
INDEX 01 00:00:00
FILE "08 - From Noche to Night.flac" FLAC
REM FILE-DECODED-SIZE 06:43:44
TRACK 08 AUDIO
INDEX 01 00:00:00
FILE "09 - Donde Estas Mi Amor.flac" FLAC
REM FILE-DECODED-SIZE 05:42:72
TRACK 09 AUDIO
INDEX 01 00:00:00
 
Об альбоме
Anyone who has heard Laura Otero from her earlier repertoire or her remarkable performances on stage in Colombia’s Misi Productions will want to discover this 2015 disc From Noche to Night. I would describe this young woman as having a dynamic coloratura voice. Besides Ms Otero is no ordinary girl-next-door soprano. Her singing comes on a generous scale, with a wide range and bags of personality – easily enough to encompass every aspect of this multi-faceted traditional-modern, Colombian-American programme.
In her hands the songs of her country in rhythms that range from joropo to cumbia hold the key to a truly wondrous parade. I am quite sure that the traditional elders, idols such as Totó la Momposina would have entirely approved – there is some outstanding vibrato just under the note and Laura Otero’s ideas touch a rarefied and beautiful realm. And this is singing unafraid of exploring light and dark, even some rarely-sounded other-worldly fare so unbuttoned, all wholeheartedly supported by exquisite arrangements and by her wonderful ensemble. From there it is only a short step towards some truly memorable music for her beautiful lyricism in vocals sung here with fearless bravura.
Although Laura Otero makes the most substantial contributions to the disc, by way of her vocals, guitarist Andrew Friedrich and bassist Richard Mikel deserve special kudos for their hand in this weighty production, which is handled with substantial poignancy and does quite match the magnificence of the vocals of Laura Otero with reverberant immediacy and honesty as well as with a stamp of individuality that might easily suggest further productions in the near future. I cannot suggest any one song by which to remember the album by. All of the music is entirely unique and charming but I did listen to Merceditas and Nuestra Canción several times and with special delight.
I suspect that most, if not all, of this music will take Laura Otero on to new challenges. Merceditas, with its queen-of-the-night high C hanging magically in the air is always a jaw-dropping piece for me and does not disappoint no matter how many times I listened to it. After that, Laura Otero’s heartfelt singing on the rest of the almost fifty minutes of music brings rapt stillness and boundless excitement too. The alluring Dónde Estás Mi Amor? brings to an end the exotic beauty of this magnificent disc. It’s hard to imagine a programme that is more imaginative or singing more compelling. (Raul da Gama)
 
Состав

Laura Otero – vocals
Andrew Friedrich – guitar
Richard Mikel – bass
Daniel Dufour – drums
with
Zack Varner – clarinet (5, 7), alto sax (6)
Marcus Wilcher – soprano sax (1), tenor sax (4, 6)
Michael Longoria – percussion (1, 6-8)
Claudia Gómez - vocals (3)
Ilia de la Rosa – cello (7)
James Anderson – violin (2)
Mike Maddux – accordion (2)
20:04
285
Нет комментариев. Ваш будет первым!