Поиск

(World Fusion) [CD] Carles Benavent - Aguita Que Corre - 1995, FLAC (tracks+.cue), lossless

(World Fusion) [CD] Carles Benavent - Aguita Que Corre - 1995, FLAC (tracks+.cue), lossless
Треклист:
Carles Benavent - Agüita Que Corre Жанр: World Fusion
Носитель: CD
Год издания: 1995
Издатель (лейбл): Nuevos Medios
Номер по каталогу: NM 15 646 CD
Аудиокодек: FLAC (*.flac)
Тип рипа: tracks+.cue
Битрейт аудио: lossless
Продолжительность: 39:32
Rip by jlgt
Наличие сканов в содержимом раздачи: да
Треклист:
01. Madrid (4:50)
02. Viva Cai! (3:42)
03. El Tiempo Vuela (3:45)
04. Luna De Santiago (4:05)
05. En Buenas Manos (1:37)
06. Mantequilla (3:36)
07. Dicen De Mi (3:59)
08. De Perdidos Al Rio (2:11)
09. Joanna (3:05)
10. Ushi (2:10)
11. Guindilla (4:18)
12. Angelique & Hellen (2:15)
  
 
Состав
Carles Benavent: bass, mandola, mandolin and piccolo
Paco de Lucía: guitar
Joan Albert Amargós: piano and keyboards
Rubem Dantas: percussion
Gil Goldstein: accordion
Jorge Pardo: sax
Tino Di Geraldo: drums, percussion and palmas
Nan Mercader: percussion
Josep Más "Kitflus": keyboards
Jean Marie Ecay: guitar
Pere Bardagí: violin
Salvador Niebla: drums
 
 
Лог создания рипа
Exact Audio Copy V1.0 beta 3 from 29. August 2011
EAC extraction logfile from 29. December 2014, 0:06
Carles Benavent / Aguita Que Corre
Used drive : PLEXTOR DVDR PX-L890SA Adapter: 2 ID: 1
Read mode : Secure
Utilize accurate stream : Yes
Defeat audio cache : Yes
Make use of C2 pointers : No
Read offset correction : 6
Overread into Lead-In and Lead-Out : No
Fill up missing offset samples with silence : Yes
Delete leading and trailing silent blocks : No
Null samples used in CRC calculations : Yes
Used interface : Native Win32 interface for Win NT & 2000
Gap handling : Appended to previous track
Used output format : User Defined Encoder
Selected bitrate : 768 kBit/s
Quality : High
Add ID3 tag : No
Command line compressor : C:\Program Files (x86)\Exact Audio Copy\FLAC\FLAC.EXE
Additional command line options : -8 -V -T "ARTIST=%artist%" -T "TITLE=%title%" -T "ALBUM=%albumtitle%" -T "DATE=%year%" -T "TRACKNUMBER=%tracknr%" -T "TOTALTRACKS=%numtracks%" -T "GENRE=%genre%" -T "ALBUMARTIST=%albumartist%" -T "ALBUM ARTIST=%albumartist%" -T "COMMENT=EAC Secure Mode, Test & Copy, AccurateRip, FLAC -8" %source%
TOC of the extracted CD
Track | Start | Length | Start sector | End sector
---------------------------------------------------------
1 | 0:00.00 | 4:50.05 | 0 | 21754
2 | 4:50.05 | 3:41.42 | 21755 | 38371
3 | 8:31.47 | 3:44.58 | 38372 | 55229
4 | 12:16.30 | 4:05.10 | 55230 | 73614
5 | 16:21.40 | 1:37.25 | 73615 | 80914
6 | 17:58.65 | 3:35.42 | 80915 | 97081
7 | 21:34.32 | 3:58.63 | 97082 | 114994
8 | 25:33.20 | 2:11.35 | 114995 | 124854
9 | 27:44.55 | 3:04.42 | 124855 | 138696
10 | 30:49.22 | 2:09.45 | 138697 | 148416
11 | 32:58.67 | 4:18.20 | 148417 | 167786
12 | 37:17.12 | 2:14.50 | 167787 | 177886
Track 1
Filename G:\Flac Rips\01 - Madrid.wav
Pre-gap length 0:00:02.00
Peak level 99.6 %
Extraction speed 3.5 X
Track quality 100.0 %
Test CRC 79764702
Copy CRC 79764702
Accurately ripped (confidence 2) [0631EC33] (AR v2)
Copy OK
Track 2
Filename G:\Flac Rips\02 - Viva Cai!.wav
Peak level 99.7 %
Extraction speed 3.8 X
Track quality 100.0 %
Test CRC 63F58384
Copy CRC 63F58384
Accurately ripped (confidence 2) [BDEFA3C3] (AR v2)
Copy OK
Track 3
Filename G:\Flac Rips\03 - El Tiempo Vuela.wav
Peak level 99.8 %
Extraction speed 3.3 X
Track quality 99.9 %
Test CRC E42C1FDA
Copy CRC E42C1FDA
Accurately ripped (confidence 2) [DB8E00A5] (AR v2)
Copy OK
Track 4
Filename G:\Flac Rips\04 - Luna De Santiago.wav
Peak level 93.8 %
Extraction speed 4.5 X
Track quality 100.0 %
Test CRC A713289B
Copy CRC A713289B
Accurately ripped (confidence 2) [88A0FD77] (AR v2)
Copy OK
Track 5
Filename G:\Flac Rips\05 - En Buenas Manos.wav
Pre-gap length 0:00:00.04
Peak level 100.0 %
Extraction speed 3.9 X
Track quality 100.0 %
Test CRC 57511F25
Copy CRC 57511F25
Accurately ripped (confidence 2) [068CC59E] (AR v2)
Copy OK
Track 6
Filename G:\Flac Rips\06 - Mantequilla.wav
Peak level 99.9 %
Extraction speed 4.8 X
Track quality 100.0 %
Test CRC 0CCA3A57
Copy CRC 0CCA3A57
Accurately ripped (confidence 2) [8FCF907B] (AR v2)
Copy OK
Track 7
Filename G:\Flac Rips\07 - Dicen De Mi.wav
Peak level 100.0 %
Extraction speed 5.2 X
Track quality 100.0 %
Test CRC EC7C4E69
Copy CRC EC7C4E69
Accurately ripped (confidence 2) [B90F024F] (AR v2)
Copy OK
Track 8
Filename G:\Flac Rips\08 - De Perdidos Al Rio.wav
Peak level 100.0 %
Extraction speed 3.4 X
Track quality 99.9 %
Test CRC D5C51FCD
Copy CRC D5C51FCD
Accurately ripped (confidence 2) [D02B6D0E] (AR v2)
Copy OK
Track 9
Filename G:\Flac Rips\09 - Joanna.wav
Peak level 99.8 %
Extraction speed 4.0 X
Track quality 99.9 %
Test CRC 90523895
Copy CRC 90523895
Accurately ripped (confidence 2) [A328FFB1] (AR v2)
Copy OK
Track 10
Filename G:\Flac Rips\10 - Ushi.wav
Pre-gap length 0:00:00.02
Peak level 99.7 %
Extraction speed 5.0 X
Track quality 100.0 %
Test CRC C137A095
Copy CRC C137A095
Accurately ripped (confidence 2) [F8D82F6F] (AR v2)
Copy OK
Track 11
Filename G:\Flac Rips\11 - Guindilla.wav
Peak level 100.0 %
Extraction speed 4.8 X
Track quality 99.9 %
Test CRC 8963CF44
Copy CRC 8963CF44
Accurately ripped (confidence 2) [E2C3466F] (AR v2)
Copy OK
Track 12
Filename G:\Flac Rips\12 - Angelique & Hellen.wav
Peak level 92.3 %
Extraction speed 5.4 X
Track quality 100.0 %
Test CRC D415DBD8
Copy CRC D415DBD8
Accurately ripped (confidence 2) [DAFEBF3D] (AR v2)
Copy OK
All tracks accurately ripped
No errors occurred
End of status report
==== Log checksum 76E01E5179C8371AE67F03D5F8EEA78451B210AA4F683F85AC82EEC8BC95A9F0 ====
 
Содержание индексной карты (.CUE)
REM GENRE Jazz
REM DATE 1995
REM DISCID AB09430C
REM COMMENT "ExactAudioCopy v1.0b3"
PERFORMER "Carles Benavent"
TITLE "Aguita Que Corre"
FILE "01 - Madrid.wav" WAVE
TRACK 01 AUDIO
TITLE "Madrid"
PERFORMER "Carles Benavent"
INDEX 01 00:00:00
FILE "02 - Viva Cai!.wav" WAVE
TRACK 02 AUDIO
TITLE "Viva Cai!"
PERFORMER "Carles Benavent"
INDEX 01 00:00:00
FILE "03 - El Tiempo Vuela.wav" WAVE
TRACK 03 AUDIO
TITLE "El Tiempo Vuela"
PERFORMER "Carles Benavent"
INDEX 01 00:00:00
FILE "04 - Luna De Santiago.wav" WAVE
TRACK 04 AUDIO
TITLE "Luna De Santiago"
PERFORMER "Carles Benavent"
INDEX 01 00:00:00
TRACK 05 AUDIO
TITLE "En Buenas Manos"
PERFORMER "Carles Benavent"
INDEX 00 04:05:06
FILE "05 - En Buenas Manos.wav" WAVE
INDEX 01 00:00:00
FILE "06 - Mantequilla.wav" WAVE
TRACK 06 AUDIO
TITLE "Mantequilla"
PERFORMER "Carles Benavent"
INDEX 01 00:00:00
FILE "07 - Dicen De Mi.wav" WAVE
TRACK 07 AUDIO
TITLE "Dicen De Mi"
PERFORMER "Carles Benavent"
INDEX 01 00:00:00
FILE "08 - De Perdidos Al Rio.wav" WAVE
TRACK 08 AUDIO
TITLE "De Perdidos Al Rio"
PERFORMER "Carles Benavent"
INDEX 01 00:00:00
FILE "09 - Joanna.wav" WAVE
TRACK 09 AUDIO
TITLE "Joanna"
PERFORMER "Carles Benavent"
INDEX 01 00:00:00
TRACK 10 AUDIO
TITLE "Ushi"
PERFORMER "Carles Benavent"
INDEX 00 03:04:40
FILE "10 - Ushi.wav" WAVE
INDEX 01 00:00:00
FILE "11 - Guindilla.wav" WAVE
TRACK 11 AUDIO
TITLE "Guindilla"
PERFORMER "Carles Benavent"
INDEX 01 00:00:00
FILE "12 - Angelique & Hellen.wav" WAVE
TRACK 12 AUDIO
TITLE "Angelique & Hellen"
PERFORMER "Carles Benavent"
INDEX 01 00:00:00
20:05
340
Нет комментариев. Ваш будет первым!